<?xml version="1.0" standalone="no"?>
<!DOCTYPE svg PUBLIC "-//W3C//DTD SVG 1.1//EN" "http://www.w3.org/Graphics/SVG/1.1/DTD/svg11.dtd" >
<svg xmlns="http://www.w3.org/2000/svg">
<metadata></metadata>
<defs>
<font id="space_age_cyrillicregular" horiz-adv-x="914" >
<font-face units-per-em="1000" ascent="1000" descent="0" />
<missing-glyph horiz-adv-x="450" />
<glyph unicode=" "  horiz-adv-x="450" />
<glyph unicode="&#x09;" horiz-adv-x="450" />
<glyph unicode="&#xa0;" horiz-adv-x="450" />
<glyph unicode="!" horiz-adv-x="196" d="M36 121q0 26 18 44t44 18t44 -18t18 -44t-18 -44t-44 -18t-44 18t-18 44zM146 291q0 -20 -14 -34t-34 -14t-34 14t-14 34v170q0 20 14 34t34 14t34 -14t14 -34v-170z" />
<glyph unicode="&#x22;" horiz-adv-x="340" d="M290 450q0 -20 -14 -34t-34 -14t-34 14t-14 34v122q0 20 14 34t34 14t34 -14t14 -34v-122zM146 450q0 -20 -14 -34t-34 -14t-34 14t-14 34v122q0 20 14 34t34 14t34 -14t14 -34v-122z" />
<glyph unicode="#" horiz-adv-x="884" d="M361 255h192l21 73h-192zM143 328q-18 2 -31 15.5t-13 32.5q0 20 14 34t34 14h162l15 50q5 16 17.5 25.5t28.5 9.5q20 0 34.5 -14.5t14.5 -33.5q0 -3 -2 -13l-7 -24h192l12 41q5 16 17.5 25.5t28.5 9.5q20 0 34.5 -14.5t14.5 -33.5q0 -3 -2 -13l-5 -15h133q20 0 34 -14 t14 -34t-14 -34t-34 -14h-160l-21 -73h132q20 0 34 -14t14 -34t-14 -34t-34 -14h-160l-17 -60q-5 -16 -17.5 -25.5t-28.5 -9.5q-20 0 -34.5 14.5t-14.5 34.5q0 2 2 12l10 34h-193l-14 -51q-5 -16 -17.5 -25.5t-28.5 -9.5q-20 0 -34.5 14.5t-14.5 34.5q0 2 2 12l7 25h-139 q-18 2 -31 15.5t-13 32.5q0 20 14 34t34 14h162l21 73h-138z" />
<glyph unicode="$" horiz-adv-x="918" d="M397 -32q0 26 18 43.5t44 17.5t44 -17.5t18 -43.5t-18 -44t-44 -18t-44 18t-18 44zM397 615q0 26 18 44t44 18t44 -18t18 -44t-18 -44t-44 -18t-44 18t-18 44zM183 243q-28 0 -52 10.5t-42 28.5t-28.5 42t-10.5 52t10.5 52t28.5 42t42 28.5t52 10.5h607q20 0 34 -14 t14 -34t-14 -34t-34 -14h-609q-15 0 -26.5 -10.5t-11.5 -26.5q0 -15 11.5 -26t26.5 -11h553q28 0 52.5 -10.5t42.5 -28.5t28.5 -42.5t10.5 -52.5t-10.5 -52t-28.5 -42t-42.5 -28t-52.5 -10h-606q-20 0 -34 14t-14 34t14 34t34 14h610q15 0 26 10.5t11 25.5q0 16 -11 27 t-26 11h-555z" />
<glyph unicode="%" horiz-adv-x="1428" d="M1208 169q23 0 37.5 7t22.5 17.5t11 22t3 21.5t-3 21.5t-11 21.5t-22.5 17t-37.5 7h-190q-23 0 -37.5 -7t-22.5 -17t-11 -21.5t-3 -21.5t3 -21.5t11 -22t22.5 -17.5t37.5 -7h190zM1378 237q0 -29 -9.5 -58t-27.5 -52.5t-43.5 -38.5t-57.5 -15h-262q-31 0 -55 15t-40.5 39 t-25.5 53t-9 57t9.5 57.5t27 52.5t43 38t58.5 15h262q30 0 54.5 -15t41 -38.5t25.5 -52.5t9 -57zM410 278q23 0 37.5 7t22.5 17.5t11 22t3 21.5t-3 21.5t-11 21.5t-22.5 17t-37.5 7h-190q-23 0 -37.5 -7t-22.5 -17t-11 -21.5t-3 -21.5t3 -21.5t11 -22t22.5 -17.5t37.5 -7 h190zM580 346q0 -29 -9.5 -58t-27.5 -52.5t-43.5 -38.5t-57.5 -15h-262q-31 0 -55 15t-40.5 39t-25.5 53t-9 57t9.5 57.5t27 52.5t43 38t58.5 15h262q30 0 54.5 -15t41 -38.5t25.5 -52.5t9 -57zM656 97q-7 -12 -18.5 -18t-24.5 -6q-20 0 -33.5 14.5t-13.5 33.5q0 13 6 24 l200 340q7 12 18.5 18t24.5 6q20 0 33.5 -14.5t13.5 -33.5q0 -14 -6 -24z" />
<glyph unicode="&#x26;" horiz-adv-x="855" d="M672 205q0 28 10 52.5t28 42.5t42 28.5t52 10.5q20 0 34 -14t14 -34t-14 -34t-34 -14q-15 0 -25.5 -11t-10.5 -26v-1q0 -28 -10.5 -52t-28.5 -42t-42.5 -28t-52.5 -10h-449q-28 0 -52.5 10.5t-43 28.5t-29 42.5t-10.5 52.5q0 25 8.5 46.5t22.5 38.5q-14 17 -22.5 38.5 t-8.5 45.5q0 28 10.5 52t29 42t43 28.5t52.5 10.5h465q20 0 34 -14t14 -34t-14 -34t-34 -14h-469q-15 0 -26.5 -11t-11.5 -26q0 -16 11.5 -26.5t26.5 -10.5h387q20 0 34 -14t14 -34t-14 -34t-34 -14h-388q-15 0 -26 -10t-11 -26q0 -15 11.5 -26.5t26.5 -11.5h454 q15 0 26 10.5t11 25.5z" />
<glyph unicode="'" horiz-adv-x="196" d="M146 387q0 -20 -14 -34t-34 -14t-34 14t-14 34v74q0 20 14 34t34 14t34 -14t14 -34v-74z" />
<glyph unicode="(" horiz-adv-x="345" d="M272 -79q-11 0 -21 5.5t-17 13.5q-50 58 -85 102.5t-57 84t-32 78.5t-10 86q0 50 10 92t32 83t57 84t85 95q8 8 17.5 13.5t20.5 5.5q20 0 34 -14t14 -34t-14 -34q-47 -51 -78 -88.5t-49 -69.5t-25.5 -63t-7.5 -70t7 -67t25 -58t49 -68t79 -96q14 -16 14 -33 q0 -20 -14 -34t-34 -14z" />
<glyph unicode=")" horiz-adv-x="345" d="M73 -79q-20 0 -34 14t-14 34q0 17 14 33q48 58 79 96t49 68t25 58t7 67t-7.5 70t-25.5 63t-49 69.5t-78 88.5q-14 14 -14 34t14 34t34 14q11 0 20.5 -5.5t17.5 -13.5q50 -52 85 -95t57 -84t32 -83t10 -92q0 -47 -10 -86t-32 -78.5t-57 -84t-85 -102.5q-7 -8 -17 -13.5 t-21 -5.5z" />
<glyph unicode="*" horiz-adv-x="540" d="M208 298q0 26 18 44t44 18t44 -18t18 -44t-18 -44t-44 -18t-44 18t-18 44zM208 638q0 26 18 44t44 18t44 -18t18 -44t-18 -44t-44 -18t-44 18t-18 44zM490 378q0 -20 -14 -34t-34 -14q-10 0 -18 4.5t-16 10.5q-10 8 -26.5 20.5t-36 24.5t-39.5 20.5t-36 9.5 q-15 0 -35 -8.5t-39.5 -20.5t-36.5 -24.5t-27 -21.5q-8 -6 -16 -10.5t-18 -4.5q-20 0 -34 14t-14 34q0 22 16 35q10 8 30.5 23.5t46.5 31.5q-26 16 -46.5 31t-30.5 24q-16 13 -16 35q0 20 14 34t34 14q10 0 18 -4.5t16 -10.5q10 -9 27 -22t36.5 -25t39.5 -20t35 -8 q16 1 36 9.5t39.5 20t36 24t26.5 21.5q8 6 16 10.5t18 4.5q20 0 34 -14t14 -34q0 -22 -16 -35q-11 -9 -31.5 -24t-46.5 -31q26 -16 46.5 -31.5t31.5 -23.5q16 -13 16 -35z" />
<glyph unicode="+" horiz-adv-x="884" d="M490 339h296q20 0 34 -14t14 -34t-14 -34t-34 -14h-296v-122q0 -20 -14 -34t-34 -14t-34 14t-14 34v122h-300q-18 2 -31 15.5t-13 32.5q0 20 14 34t34 14h296v122q0 20 14 34t34 14t34 -14t14 -34v-122z" />
<glyph unicode="," horiz-adv-x="196" d="M146 65q0 -23 -8.5 -47t-33.5 -47q-8 -8 -17 -13t-20 -5q-20 0 -34 13.5t-14 33.5q0 23 16 36q1 1 4 5t5 13t4 25t2 42q0 20 14 34t34 14t34 -14t14 -34v-56z" />
<glyph unicode="-" horiz-adv-x="492" d="M394 339q20 0 34 -14t14 -34t-14 -34t-34 -14h-300q-18 2 -31 15.5t-13 32.5q0 20 14 34t34 14h296z" />
<glyph unicode="." horiz-adv-x="224" d="M50 121q0 26 18 44t44 18t44 -18t18 -44t-18 -44t-44 -18t-44 18t-18 44z" />
<glyph unicode="/" horiz-adv-x="396" d="M140 97q-7 -12 -18.5 -18t-24.5 -6q-20 0 -33.5 14.5t-13.5 33.5q0 13 6 24l200 340q7 12 18.5 18t24.5 6q20 0 33.5 -14.5t13.5 -33.5q0 -14 -6 -24z" />
<glyph unicode="0" d="M647 339q20 0 34 -14t14 -34t-14 -34t-34 -14h-380q-20 0 -34 14t-14 34t14 34t34 14h380zM658 169q34 0 56 12.5t34.5 30.5t17 39.5t4.5 39.5t-4.5 39.5t-17 39.5t-34.5 30.5t-56 12.5h-402q-35 0 -56.5 -12.5t-34 -30.5t-17 -39.5t-4.5 -39.5t4.5 -39.5t17 -39.5 t34 -30.5t56.5 -12.5h402zM864 291q0 -38 -12.5 -76.5t-36.5 -70t-58 -51.5t-77 -20h-456q-41 0 -73 20t-54.5 51.5t-34.5 70t-12 76.5q0 37 12.5 76t36.5 70.5t58 51.5t77 20h456q40 0 72.5 -20t55 -51.5t34.5 -70.5t12 -76z" />
<glyph unicode="1" horiz-adv-x="328" d="M182 375q0 15 -11.5 26.5t-26.5 11.5h-46q-20 0 -34 14t-14 34t14 34t34 14h45q28 0 52.5 -10.5t43 -28.5t29 -42.5t10.5 -52.5v-254q0 -20 -14 -34t-34 -14t-34 14t-14 34v254z" />
<glyph unicode="2" horiz-adv-x="882" d="M784 169q20 0 34 -14t14 -34t-14 -34t-34 -14h-686q-20 0 -34 14t-14 34v96q0 25 9 47.5t25.5 39t38 26t47.5 9.5h531q15 0 26.5 10.5t11.5 26.5q0 15 -11.5 26t-26.5 11h-603q-20 0 -34 14t-14 34t14 34t34 14h599q28 0 52.5 -10.5t43 -28.5t29 -42t10.5 -52t-10.5 -52 t-29 -42t-43 -28.5t-52.5 -10.5h-521q-13 -2 -22 -12t-9 -25v-37h639z" />
<glyph unicode="3" horiz-adv-x="888" d="M164 291q0 20 14 34t34 14h497q15 0 26 11t11 27q0 15 -11 25.5t-26 10.5h-611q-20 0 -34 14t-14 34t14 34t34 14h606q28 0 52.5 -10t42.5 -28t28.5 -42t10.5 -52q0 -25 -8.5 -47t-23.5 -39q32 -38 32 -86q0 -28 -10.5 -52t-28.5 -42t-42.5 -28t-52.5 -10h-606 q-20 0 -34 14t-14 34t14 34t34 14h611q15 0 26 10.5t11 25.5q0 16 -11 27t-26 11h-497q-20 0 -34 14t-14 34z" />
<glyph unicode="4" horiz-adv-x="884" d="M146 336q0 -16 11.5 -26.5t26.5 -10.5h554v162q0 20 14 34t34 14t34 -14t14 -34v-340q0 -20 -14 -34t-34 -14q-19 0 -33.5 14t-14.5 34v82h-550q-28 0 -53 10.5t-44 28.5t-30 42t-11 52v125q0 20 14 34t34 14t34 -14t14 -34v-125z" />
<glyph unicode="5" horiz-adv-x="888" d="M147 413v-49q0 -10 8.5 -17.5t22.5 -7.5h526q28 0 52.5 -10.5t42.5 -28.5t28.5 -42.5t10.5 -52.5t-10.5 -52t-28.5 -42t-42.5 -28t-52.5 -10h-606q-20 0 -34 14t-14 34t14 34t34 14h611q15 0 26 10.5t11 25.5q0 16 -11 27t-26 11h-536q-22 0 -44 9.5t-39 26.5t-28 41 t-11 54v90q0 27 15.5 36t48.5 9h645q20 0 34 -14t14 -34t-14 -34t-34 -14h-613z" />
<glyph unicode="6" horiz-adv-x="915" d="M362 243q-10 -3 -17.5 -13t-7.5 -24q0 -31 25 -36v-1h377q12 0 21.5 11t9.5 26t-8.5 26t-22.5 11h-377zM745 339q25 0 47 -9.5t38.5 -26t25.5 -39t9 -47.5v-22q0 -26 -9 -48t-25.5 -38.5t-38.5 -26t-47 -9.5h-383h-5h-133q-41 0 -73 20t-54.5 51.5t-34.5 70t-12 76.5 q0 37 12.5 76t36.5 70.5t58 51.5t77 20h583q20 0 34 -14t14 -34t-14 -34t-34 -14h-564q-35 0 -56.5 -12.5t-34 -30.5t-17 -39.5t-4.5 -39.5q0 -17 4 -38t15.5 -39t32 -31t52.5 -14q-3 12 -3 26v22q0 25 9 47.5t25.5 39t38 26t47.5 9.5h383z" />
<glyph unicode="7" horiz-adv-x="882" d="M98 413q-20 0 -34 14t-14 34t14 34t34 14h599q28 0 52.5 -10.5t43 -28.5t29 -42t10.5 -52q0 -34 -11 -56.5t-29.5 -37.5t-43.5 -24.5t-53 -17.5l-546 -161q-8 -2 -13.5 -4t-12.5 -2q-20 0 -35.5 13.5t-15.5 34.5q0 17 11 29t26 17l599 171q17 5 24 13.5t7 24.5 q0 15 -11.5 26t-26.5 11h-603z" />
<glyph unicode="8" horiz-adv-x="882" d="M701 169q15 0 26.5 11t11.5 26q0 16 -11.5 26.5t-26.5 10.5h-521q-15 0 -26 -10t-11 -26q0 -15 11.5 -26.5t26.5 -11.5h520zM181 413q-15 0 -26.5 -11t-11.5 -26q0 -16 11.5 -26.5t26.5 -10.5h521q15 0 26 10t11 26q0 15 -11.5 26.5t-26.5 11.5h-520zM185 73 q-28 0 -52.5 10.5t-43 28.5t-29 42.5t-10.5 52.5q0 25 8.5 46.5t22.5 38.5q-14 17 -22.5 38.5t-8.5 45.5q0 28 10.5 52t29 42t43 28.5t52.5 10.5h512q28 0 52.5 -10.5t43 -28.5t29 -42.5t10.5 -52.5q0 -25 -8.5 -46.5t-22.5 -38.5q14 -17 22.5 -38.5t8.5 -45.5 q0 -28 -10.5 -52t-29 -42t-43 -28.5t-52.5 -10.5h-512z" />
<glyph unicode="9" horiz-adv-x="882" d="M832 461q0 -20 -14 -34t-34 -14h-603q-15 0 -26.5 -11t-11.5 -26q0 -16 11.5 -26.5t26.5 -10.5h531q25 0 47 -9.5t38.5 -26t25.5 -39t9 -47.5v-96q0 -20 -14 -34t-34 -14q-19 0 -33.5 14t-14.5 34v85q0 15 -9 25t-22 12h-520q-28 0 -52.5 10.5t-43 28.5t-29 42t-10.5 52 t10.5 52t29 42t43 28.5t52.5 10.5h599q20 0 34 -14t14 -34z" />
<glyph unicode=":" horiz-adv-x="224" d="M50 401q0 26 18 44t44 18t44 -18t18 -44t-18 -44t-44 -18t-44 18t-18 44zM50 121q0 26 18 44t44 18t44 -18t18 -44t-18 -44t-44 -18t-44 18t-18 44z" />
<glyph unicode=";" horiz-adv-x="224" d="M161 65q0 -23 -8.5 -47t-33.5 -47q-8 -8 -17 -13t-20 -5q-20 0 -34 13.5t-14 33.5q0 23 16 36q1 1 4 5t5 13t4 25t2 42q0 20 14 34t34 14t34 -14t14 -34v-56zM50 401q0 26 18 44t44 18t44 -18t18 -44t-18 -44t-44 -18t-44 18t-18 44z" />
<glyph unicode="&#x3c;" horiz-adv-x="536" d="M438 50q-11 0 -22 4l-315 157q-23 11 -37 32.5t-14 47.5q0 28 16.5 48t39.5 32l306 153q7 4 13 6.5t13 2.5q20 0 34 -14t14 -34q0 -29 -26 -43l-303 -151l296 -147q13 -6 23 -17.5t10 -28.5q0 -20 -14 -34t-34 -14z" />
<glyph unicode="=" horiz-adv-x="883" d="M785 217q20 0 34 -14t14 -34t-14 -34t-34 -14h-691q-18 0 -31 14.5t-13 33.5q0 20 14 34t34 14h687zM785 387q20 0 34 -14t14 -34t-14 -34t-34 -14h-691q-18 0 -31 14.5t-13 33.5q0 20 14 34t34 14h687z" />
<glyph unicode="&#x3e;" horiz-adv-x="536" d="M98 532q11 0 22 -4l315 -157q23 -11 37 -32.5t14 -47.5q0 -28 -16.5 -48t-39.5 -32l-306 -153q-7 -4 -13 -6.5t-13 -2.5q-20 0 -34 14t-14 34q0 29 26 43l303 151l-296 147q-13 6 -23 17.5t-10 28.5q0 20 14 34t34 14z" />
<glyph unicode="?" horiz-adv-x="822" d="M290 121q0 26 18 44t44 18t44 -18t18 -44t-18 -44t-44 -18t-44 18t-18 44zM50 376q0 28 11 52t30 42t44 28.5t53 10.5h449q28 0 52.5 -10.5t43 -28.5t29 -42t10.5 -52t-10.5 -52t-29 -42t-43 -28.5t-52.5 -10.5h-299q-20 0 -34 14t-14 34t14 34t34 14h303q15 0 26.5 10.5 t11.5 26.5q0 15 -11.5 26t-26.5 11h-460q-14 -2 -24.5 -12t-10.5 -25q0 -20 -14 -34t-34 -14t-34 14t-14 34z" />
<glyph unicode="@" horiz-adv-x="1005" d="M441 243q-14 0 -22.5 -11t-8.5 -26t9.5 -26t21.5 -11h127v1q25 5 25 36q0 14 -7.5 24t-17.5 13h-127zM221 198q0 -20 -14 -34t-34 -14t-34 14t-14 34v93q0 37 12.5 76t36.5 70.5t58 51.5t77 20h387q43 0 77 -20t58 -51.5t36.5 -70.5t12.5 -76t-12 -76t-34.5 -70.5 t-55 -51.5t-72.5 -20h-271q-26 0 -47.5 9.5t-38 26t-25.5 38.5t-9 48v22q0 25 9 47.5t25.5 39t38 26t47.5 9.5h133q25 0 47 -9.5t38.5 -26t25.5 -39t9 -47.5v-22q0 -14 -3 -26q31 1 51.5 14t32 31t16 39t4.5 38q0 18 -4.5 39.5t-17 39.5t-34.5 30.5t-56 12.5h-349 q-35 0 -56 -12.5t-32 -30.5t-15 -39.5t-4 -39.5v-93z" />
<glyph unicode="A" horiz-adv-x="816" d="M346 181q0 26 18 44t44 18t44 -18t18 -44t-18 -44t-44 -18t-44 18t-18 44zM135 91q-14 -18 -37 -18q-20 0 -34 14t-14 34q0 19 10 29l243 327q17 23 45 37.5t60 14.5q30 0 57 -13t44 -36l243 -325q5 -8 9.5 -16t4.5 -18q0 -20 -14 -34t-34 -14q-25 0 -38 19l-233 311 q-7 8 -17.5 17.5t-21.5 9.5t-21.5 -9.5t-16.5 -17.5z" />
<glyph unicode="B" horiz-adv-x="882" d="M146 169h555q15 0 26.5 11t11.5 26q0 16 -11.5 26.5t-26.5 10.5h-555v-74zM146 413v-74h556q15 0 26 10t11 26q0 15 -11.5 26.5t-26.5 11.5h-555zM98 73q-20 0 -34 14t-14 34v340q0 20 14 34t34 14h599q28 0 52.5 -10.5t43 -28.5t29 -42.5t10.5 -52.5q0 -25 -8.5 -46.5 t-22.5 -38.5q14 -17 22.5 -38.5t8.5 -45.5q0 -28 -10.5 -52t-29 -42t-43 -28.5t-52.5 -10.5h-599z" />
<glyph unicode="C" horiz-adv-x="915" d="M50 291q0 37 12.5 76t36.5 70.5t58 51.5t77 20h583q20 0 34 -14t14 -34t-14 -34t-34 -14h-562q-35 0 -56.5 -12.5t-34 -30.5t-17 -39.5t-4.5 -39.5t4.5 -39.5t17 -39.5t34 -30.5t56.5 -12.5h562q20 0 34 -14t14 -34t-14 -34t-34 -14h-593q-41 0 -73 20t-54.5 51.5 t-34.5 70t-12 76.5z" />
<glyph unicode="D" horiz-adv-x="915" d="M146 413v-244h514q34 0 56 12.5t34.5 30.5t17 39.5t4.5 39.5t-4.5 39.5t-17 39.5t-34.5 30.5t-56 12.5h-514zM865 291q0 -37 -12 -76t-34.5 -70.5t-55 -51.5t-72.5 -20h-593q-20 0 -34 14t-14 34v340q0 20 14 34t34 14h583q43 0 77 -20t58 -51.5t36.5 -70.5t12.5 -76z " />
<glyph unicode="E" horiz-adv-x="905" d="M765 339q20 0 34 -14t14 -34t-14 -34t-34 -14h-498q-20 0 -34 14t-14 34t14 34t34 14h498zM256 413q-35 0 -56.5 -12.5t-34 -30.5t-17 -39.5t-4.5 -39.5t4.5 -39.5t17 -39.5t34 -30.5t56.5 -12.5h551q20 0 34 -14t14 -34t-14 -34t-34 -14h-583q-41 0 -73 20t-54.5 51.5 t-34.5 70t-12 76.5q0 37 12.5 76t36.5 70.5t58 51.5t77 20h573q20 0 34 -14t14 -34t-14 -34t-34 -14h-551z" />
<glyph unicode="F" horiz-adv-x="905" d="M785 339q20 0 34 -14t14 -34t-14 -34t-34 -14h-518q-20 0 -34 14t-14 34t14 34t34 14h518zM51 291q0 37 12.5 76t36.5 70.5t58 51.5t77 20h573q20 0 34 -14t14 -34t-14 -34t-34 -14h-552q-33 0 -54.5 -11t-33.5 -28.5t-16.5 -37.5t-4.5 -38v-177q0 -20 -14 -34t-34 -14 t-34 14t-14 34v170z" />
<glyph unicode="G" horiz-adv-x="915" d="M314 291q0 20 14 34t34 14h383q25 0 47 -9.5t38.5 -26t25.5 -39t9 -47.5v-22q0 -26 -9 -48t-25.5 -38.5t-38.5 -26t-47 -9.5h-521q-41 0 -73 20t-54.5 51.5t-34.5 70t-12 76.5q0 37 12.5 76t36.5 70.5t58 51.5t77 20h583q20 0 34 -14t14 -34t-14 -34t-34 -14h-561 q-35 0 -56.5 -12.5t-34 -30.5t-17 -39.5t-4.5 -39.5t4.5 -39.5t17 -39.5t34 -30.5t56.5 -12.5h485q12 0 21.5 11t9.5 26t-8.5 26t-22.5 11h-379q-20 0 -34 14t-14 34z" />
<glyph unicode="H" horiz-adv-x="883" d="M832 121q0 -20 -14 -34t-34 -14t-34 14t-14 34v23q0 30 -12.5 49.5t-31 30.5t-40 15t-38.5 4h-170h-3h-4h-170q-31 0 -62.5 8t-59.5 24v-154q0 -20 -14 -34t-34 -14t-34 14t-14 34v340q0 20 14 34t34 14t34 -14t14 -34v-17q0 -32 12.5 -52.5t31 -32t39.5 -16t39 -4.5h173 h1h3h170q31 0 62.5 -8t59.5 -24v154q0 20 14 34t34 14t34 -14t14 -34v-340z" />
<glyph unicode="I" horiz-adv-x="196" d="M146 121q0 -20 -14 -34t-34 -14t-34 14t-14 34v340q0 20 14 34t34 14t34 -14t14 -34v-340z" />
<glyph unicode="J" horiz-adv-x="908" d="M146 241q0 -14 8 -26.5t21.5 -23t32 -16.5t39.5 -6h403q33 0 54.5 11t34 28t18 37t5.5 38v178q0 20 14.5 34t33.5 14q20 0 34 -14t14 -34v-170q0 -38 -13 -76.5t-37.5 -70t-59.5 -51.5t-78 -20h-452q-34 0 -64.5 14t-53.5 37.5t-36.5 54t-13.5 62.5q0 20 14.5 34t33.5 14 q20 0 34 -14t14 -34z" />
<glyph unicode="K" horiz-adv-x="882" d="M145 339h231q52 0 102 13.5t97.5 35.5t91 50t83.5 57q8 6 17 10t17 4q20 0 34 -14t14 -34q0 -14 -8 -24.5t-19 -18.5q-26 -20 -50 -37t-48 -32.5t-49.5 -29.5t-54.5 -28q29 -14 54.5 -28t49.5 -29.5t48 -32.5t50 -37q11 -8 19 -18.5t8 -24.5q0 -20 -14 -34t-34 -14 q-8 0 -17 4t-17 10q-41 30 -85 58.5t-90.5 50t-96.5 34.5t-102 13h-231v-122q0 -20 -14 -34t-33 -14q-20 0 -34 14t-14 34v340q0 20 14 34t33 14q20 0 34 -14t14 -34v-122z" />
<glyph unicode="L" horiz-adv-x="882" d="M187 73q-28 0 -53 10.5t-43.5 28.5t-29.5 42t-11 52v255q0 20 14 34t34 14q19 0 33.5 -14t14.5 -34v-255q0 -15 11.5 -26t26.5 -11h600q20 0 34 -14t14 -34t-14 -34t-34 -14h-597z" />
<glyph unicode="M" horiz-adv-x="944" d="M411 121q0 26 18 44t44 18t44 -18t18 -44t-18 -44t-44 -18t-44 18t-18 44zM146 121q0 -20 -14 -34t-34 -14t-34 14t-14 34v340q0 20 14 34t34 14q10 0 18 -4t16 -10q64 -56 110.5 -88t84.5 -48t72.5 -20t73.5 -4t72.5 3.5t71 19.5t84 48t111.5 89q17 14 34 14 q20 0 34 -14t14 -34v-340q0 -20 -14 -34t-34 -14t-34 14t-14 34v237q-45 -36 -86.5 -60t-81 -38.5t-78.5 -20.5t-79 -6q-43 0 -82.5 6t-79 20.5t-80 38.5t-85.5 60v-237z" />
<glyph unicode="N" horiz-adv-x="877" d="M731 291q0 18 -4.5 39.5t-17 39.5t-34.5 30.5t-56 12.5h-361q-35 0 -56.5 -12.5t-34 -30.5t-17 -39.5t-4.5 -39.5v-170q0 -20 -14 -34t-34 -14t-34 14t-14 34v170q0 37 12.5 76t36.5 70.5t58 51.5t77 20h419q40 0 72.5 -20t55 -51.5t34.5 -70.5t12 -76v-170 q0 -20 -14 -34t-34 -14t-34 14t-14 34v170z" />
<glyph unicode="O" d="M659 169q34 0 56 12.5t34.5 30.5t17 39.5t4.5 39.5t-4.5 39.5t-17 39.5t-34.5 30.5t-56 12.5h-404q-35 0 -56.5 -12.5t-34 -30.5t-17 -39.5t-4.5 -39.5t4.5 -39.5t17 -39.5t34 -30.5t56.5 -12.5h404zM864 291q0 -38 -12.5 -76.5t-36.5 -70t-58 -51.5t-77 -20h-456 q-41 0 -73 20t-54.5 51.5t-34.5 70.5t-12 76t12.5 76t36.5 70.5t58 51.5t77 20h456q40 0 72.5 -20t55 -51.5t34.5 -70.5t12 -76z" />
<glyph unicode="P" horiz-adv-x="882" d="M146 413v-74h555q15 0 26.5 10.5t11.5 26.5q0 15 -11.5 26t-26.5 11h-555zM697 509q28 0 52.5 -10.5t43 -28.5t29 -42t10.5 -52t-10.5 -52t-29 -42t-43 -28.5t-52.5 -10.5h-551v-122q0 -20 -14.5 -34t-33.5 -14q-20 0 -34 14t-14 34v340q0 20 14 34t34 14h599z" />
<glyph unicode="Q" d="M659 169q34 0 56 12.5t34.5 30.5t17 39.5t4.5 39.5t-4.5 39.5t-17 39.5t-34.5 30.5t-56 12.5h-404q-35 0 -56.5 -12.5t-34 -30.5t-17 -39.5t-4.5 -39.5t4.5 -39.5t17 -39.5t34 -30.5t56.5 -12.5h206q20 0 34 -14t14 -34t-14 -34t-34 -14h-237q-41 0 -73 20t-54.5 51.5 t-34.5 70.5t-12 76t12.5 76t36.5 70.5t58 51.5t77 20h456q40 0 72.5 -20t55 -51.5t34.5 -70.5t12 -76q0 -38 -12.5 -76.5t-36.5 -70t-58 -51.5t-77 -20h-21q-20 0 -34 14t-14 34t14 34t34 14zM498 251q0 26 18 44t44 18t44 -18t18 -44t-18 -44t-44 -18t-44 18t-18 44z" />
<glyph unicode="R" horiz-adv-x="882" d="M832 121q0 -20 -14 -34t-34 -14q-10 0 -18 4t-15 10q-7 7 -9 10q-41 51 -84.5 80t-91.5 44t-101.5 18.5t-114.5 3.5h-204v-122q0 -20 -14.5 -34t-33.5 -14q-20 0 -34 14t-14 34v257q0 30 11 54t28 41t39 26.5t44 9.5h522q28 0 53 -10.5t44 -28.5t30 -42t11 -52 q0 -20 -14 -34t-34 -14t-34 14t-14 34q0 15 -10.5 25t-24.5 12h-524q-13 0 -21 -6.5t-10 -15.5v-52h204q88 0 159 -10t128.5 -32.5t103 -59t81.5 -89.5q10 -15 10 -27z" />
<glyph unicode="S" horiz-adv-x="918" d="M183 243q-28 0 -52 10.5t-42 28.5t-28.5 42t-10.5 52t10.5 52t28.5 42t42 28.5t52 10.5h607q20 0 34 -14t14 -34t-14 -34t-34 -14h-609q-15 0 -26.5 -10.5t-11.5 -26.5q0 -15 11.5 -26t26.5 -11h553q28 0 52.5 -10.5t42.5 -28.5t28.5 -42.5t10.5 -52.5t-10.5 -52 t-28.5 -42t-42.5 -28t-52.5 -10h-606q-20 0 -34 14t-14 34t14 34t34 14h610q15 0 26 10.5t11 25.5q0 16 -11 27t-26 11h-555z" />
<glyph unicode="T" horiz-adv-x="884" d="M786 509q20 0 34 -14t14 -34q0 -19 -13 -32.5t-31 -15.5h-201q-30 0 -49.5 -12.5t-30.5 -31t-15 -39.5t-4 -39v-170q0 -20 -14 -34t-34 -14t-34 14t-14 34v170q0 31 8 62.5t24 59.5h-328q-20 0 -34 14t-14 34t14 34t34 14h688z" />
<glyph unicode="U" d="M146 291q0 -18 4.5 -39.5t17 -39.5t34 -30.5t56.5 -12.5h398q34 0 56 12.5t34.5 30.5t17 39.5t4.5 39.5v170q0 20 14 34t34 14t34 -14t14 -34v-170q0 -38 -12.5 -76.5t-36.5 -70t-58 -51.5t-77 -20h-456q-41 0 -73 20t-54.5 51.5t-34.5 70.5t-12 76v170q0 20 14 34t34 14 t34 -14t14 -34v-170z" />
<glyph unicode="V" horiz-adv-x="816" d="M681 491q13 18 37 18q20 0 34 -14t14 -34q0 -19 -10 -29l-1 -1l-242 -326q-17 -23 -45 -37.5t-60 -14.5q-30 0 -57 13t-44 36l-243 325q-5 8 -9.5 16t-4.5 18q0 20 14 34t34 14q25 0 38 -19l233 -311q7 -8 17.5 -17.5t21.5 -9.5t21.5 9.5t16.5 17.5z" />
<glyph unicode="W" horiz-adv-x="1012" d="M50 461q0 20 14 34t34 14t34 -14t14 -34v-170q0 -18 4.5 -39.5t17 -39.5t34 -30.5t56.5 -12.5h232q-16 28 -24 59.5t-8 62.5v170q0 20 14 34t34 14t34 -14t14 -34v-170q0 -18 4.5 -39t16 -39.5t32 -31t52.5 -12.5h95q34 0 56 12.5t34.5 30.5t17 39.5t4.5 39.5v170 q0 20 14 34t34 14t34 -14t14 -34v-170q0 -38 -12.5 -76.5t-36.5 -70t-58 -51.5t-77 -20h-554q-41 0 -73 20t-54.5 51.5t-34.5 70t-12 76.5v170z" />
<glyph unicode="X" horiz-adv-x="904" d="M806 73q-4 0 -7 0.5t-7 1.5q-44 9 -86 30t-75 50t-53 64t-20 72q0 36 20 71t53 64.5t75 50.5t86 30q4 1 7 1.5t7 0.5q20 0 34 -14t14 -34q0 -19 -13 -31t-32 -17q-31 -7 -59 -20t-49.5 -29.5t-34 -35t-12.5 -37.5t12.5 -38t34 -35.5t49.5 -29.5t59 -19q19 -4 32 -16.5 t13 -31.5q0 -20 -14 -34t-34 -14zM390 291q0 26 18 44t44 18t44 -18t18 -44t-18 -44t-44 -18t-44 18t-18 44zM98 73q-20 0 -34 14t-14 34q0 19 13 31.5t32 16.5q31 6 59 19t49.5 29.5t34 35.5t12.5 38t-12.5 37.5t-34 35t-49.5 29.5t-59 20q-19 5 -32 17t-13 31q0 20 14 34 t34 14q4 0 7 -0.5t7 -1.5q44 -9 86 -30t75 -50.5t53 -64.5t20 -71q0 -37 -20 -72t-53 -64t-75 -50t-86 -30q-4 -1 -7 -1.5t-7 -0.5z" />
<glyph unicode="Y" horiz-adv-x="904" d="M391 121q0 26 18 44t44 18t44 -18t18 -44t-18 -44t-44 -18t-44 18t-18 44zM453 335q39 0 69 3.5t64 19.5t77.5 48t108.5 89q17 14 34 14q20 0 34 -14t14 -34q0 -11 -5.5 -21t-13.5 -17q-63 -56 -112.5 -92.5t-93.5 -58.5t-86 -30.5t-90 -8.5q-51 0 -93.5 8.5t-85.5 30.5 t-92 58.5t-113 92.5q-8 7 -13.5 17t-5.5 21q0 20 14 34t34 14q10 0 18 -4t16 -10q64 -56 107.5 -88t78 -48t65.5 -20t70 -4z" />
<glyph unicode="Z" horiz-adv-x="905" d="M98 413q-20 0 -34 14t-14 34t14 34t34 14h661q40 0 68 -28t28 -68q0 -34 -20 -59.5t-51 -33.5l-561 -133q-24 -6 -24 -11q0 -7 43 -7h565q20 0 34 -14t14 -34t-14 -34t-34 -14h-661q-40 0 -68 28t-28 68q0 31 17 57t46 33l570 134q16 4 16 10q0 10 -36 10h-565z" />
<glyph unicode="[" horiz-adv-x="816" d="M266 265h284l-103 138q-7 8 -17.5 17.5t-21.5 9.5t-21.5 -9.5t-16.5 -17.5zM622 169h-429l-58 -78q-12 -18 -37 -18q-20 0 -34 14t-14 34q0 19 10 29l243 327q17 23 45 37.5t60 14.5q30 0 57 -13t44 -36l243 -325q5 -8 9.5 -16t4.5 -18q0 -20 -14 -34t-34 -14 q-23 0 -38 19z" />
<glyph unicode="\" horiz-adv-x="396" d="M56 437q-6 10 -6 24q0 19 13.5 33.5t33.5 14.5q13 0 24.5 -6t18.5 -18l200 -340q6 -11 6 -24q0 -19 -13.5 -33.5t-33.5 -14.5q-13 0 -24.5 6t-18.5 18z" />
<glyph unicode="]" horiz-adv-x="816" d="M481 491q29 -35 54 -66t54.5 -68t68 -85t94.5 -117q5 -7 9.5 -15.5t4.5 -18.5q0 -20 -14 -34t-34 -14q-13 0 -21.5 5t-16.5 14l-47 58h-400q-18 0 -38.5 -5t-42.5 -33l-14 -18h-1l-2 -3q-15 -18 -37 -18q-20 0 -34 14t-14 34q0 19 10 29l42 52q17 22 45 33t62 11h347 l-148 183q-12 13 -12 32q0 20 14 34t34 14q22 0 37 -18z" />
<glyph unicode="^" horiz-adv-x="503" d="M50 387q0 11 4 22l117 241q11 23 32.5 37t47.5 14q28 0 48.5 -16.5t31.5 -39.5l113 -232q4 -7 6.5 -13t2.5 -13q0 -20 -14 -34t-34 -14q-31 0 -43 26l-111 229l-107 -222q-6 -13 -17.5 -23t-28.5 -10q-20 0 -34 14t-14 34z" />
<glyph unicode="_" horiz-adv-x="0" d="M148 169q20 0 34 -14t14 -34t-14 -34t-34 -14h-299q-18 2 -31 15.5t-13 32.5q0 20 14 34t34 14h295z" />
<glyph unicode="`" horiz-adv-x="285" d="M241 625q17 -10 22 -29t-5 -36t-29 -22.5t-36 4.5l-148 85q-17 10 -22 29t5 36t29 22.5t36 -4.5z" />
<glyph unicode="a" horiz-adv-x="816" d="M135 91q-14 -18 -37 -18q-20 0 -34 14t-14 34q0 19 10 29l243 327q17 23 45 37.5t60 14.5q30 0 57 -13t44 -36l243 -325q5 -8 9.5 -16t4.5 -18q0 -20 -14 -34t-34 -14q-25 0 -38 19l-233 311q-7 8 -17.5 17.5t-21.5 9.5t-21.5 -9.5t-16.5 -17.5z" />
<glyph unicode="b" horiz-adv-x="882" d="M701 169q15 0 26.5 11t11.5 26q0 16 -11.5 26.5t-26.5 10.5h-555v-49q0 -10 8.5 -17.5t22.5 -7.5h524zM50 461q0 20 14 34t34 14h599q28 0 52.5 -10.5t43 -28.5t29 -42.5t10.5 -52.5q0 -25 -8.5 -46.5t-22.5 -38.5q14 -17 22.5 -38.5t8.5 -45.5q0 -28 -10.5 -52t-29 -42 t-43 -28.5t-52.5 -10.5h-525q-22 0 -44 9.5t-39 26.5t-28 41t-11 54v90q0 27 15.5 36t48.5 9h588q15 0 26 10t11 26q0 15 -11.5 26.5t-26.5 11.5h-603q-20 0 -34 14t-14 34z" />
<glyph unicode="c" horiz-adv-x="915" d="M50 291q0 37 12.5 76t36.5 70.5t58 51.5t77 20h583q20 0 34 -14t14 -34t-14 -34t-34 -14h-562q-35 0 -56.5 -12.5t-34 -30.5t-17 -39.5t-4.5 -39.5t4.5 -39.5t17 -39.5t34 -30.5t56.5 -12.5h562q20 0 34 -14t14 -34t-14 -34t-34 -14h-593q-41 0 -73 20t-54.5 51.5 t-34.5 70t-12 76.5z" />
<glyph unicode="d" horiz-adv-x="915" d="M660 169q34 0 56 12.5t34.5 30.5t17 39.5t4.5 39.5t-4.5 39.5t-17 39.5t-34.5 30.5t-56 12.5h-562q-20 0 -34 14t-14 34t14 34t34 14h583q43 0 77 -20t58 -51.5t36.5 -70.5t12.5 -76t-12 -76t-34.5 -70.5t-55 -51.5t-72.5 -20h-593q-20 0 -34 14t-14 34v170q0 20 14 34 t34 14t34 -14t14 -34v-122h514z" />
<glyph unicode="e" horiz-adv-x="905" d="M50 461q0 20 14 34t34 14h709q20 0 34 -14t14 -34t-14 -34t-34 -14h-709q-20 0 -34 14t-14 34zM172 73q-22 0 -44 9.5t-39 26.5t-28 41t-11 54v90q0 27 15.5 36t48.5 9h671q20 0 34 -14t14 -34t-14 -34t-34 -14h-639v-49q0 -10 8.5 -17.5t22.5 -7.5h630q20 0 34 -14 t14 -34t-14 -34t-34 -14h-635z" />
<glyph unicode="f" horiz-adv-x="905" d="M50 461q0 20 14 34t34 14h709q20 0 34 -14t14 -34t-14 -34t-34 -14h-709q-20 0 -34 14t-14 34zM50 294q0 27 15.5 36t48.5 9h671q20 0 34 -14t14 -34t-14 -34t-34 -14h-639v-122q0 -20 -14 -34t-34 -14t-34 14t-14 34v173z" />
<glyph unicode="g" horiz-adv-x="915" d="M314 291q0 20 14 34t34 14h383q25 0 47 -9.5t38.5 -26t25.5 -39t9 -47.5v-22q0 -26 -9 -48t-25.5 -38.5t-38.5 -26t-47 -9.5h-521q-41 0 -73 20t-54.5 51.5t-34.5 70t-12 76.5q0 37 12.5 76t36.5 70.5t58 51.5t77 20h583q20 0 34 -14t14 -34t-14 -34t-34 -14h-561 q-35 0 -56.5 -12.5t-34 -30.5t-17 -39.5t-4.5 -39.5t4.5 -39.5t17 -39.5t34 -30.5t56.5 -12.5h485q12 0 21.5 11t9.5 26t-8.5 26t-22.5 11h-379q-20 0 -34 14t-14 34z" />
<glyph unicode="h" horiz-adv-x="883" d="M833 121q0 -20 -14 -34t-34 -14t-34 14t-14 34v122h-591v-122q0 -20 -14 -34t-34 -14t-34 14t-14 34v340q0 20 14 34t34 14t34 -14t14 -34v-122h591v122q0 20 14 34t34 14t34 -14t14 -34v-340z" />
<glyph unicode="i" horiz-adv-x="196" d="M146 121q0 -20 -14 -34t-34 -14t-34 14t-14 34v340q0 20 14 34t34 14t34 -14t14 -34v-340z" />
<glyph unicode="j" horiz-adv-x="908" d="M146 241q0 -14 8 -26.5t21.5 -23t32 -16.5t39.5 -6h403q33 0 54.5 11t34 28t18 37t5.5 38v178q0 20 14.5 34t33.5 14q20 0 34 -14t14 -34v-170q0 -38 -13 -76.5t-37.5 -70t-59.5 -51.5t-78 -20h-452q-34 0 -64.5 14t-53.5 37.5t-36.5 54t-13.5 62.5q0 20 14.5 34t33.5 14 q20 0 34 -14t14 -34z" />
<glyph unicode="k" horiz-adv-x="882" d="M145 339h231q52 0 102 13.5t97.5 35.5t91 50t83.5 57q8 6 17 10t17 4q20 0 34 -14t14 -34q0 -14 -8 -24.5t-19 -18.5q-26 -20 -50 -37t-48 -32.5t-49.5 -29.5t-54.5 -28q29 -14 54.5 -28t49.5 -29.5t48 -32.5t50 -37q11 -8 19 -18.5t8 -24.5q0 -20 -14 -34t-34 -14 q-8 0 -17 4t-17 10q-41 30 -85 58.5t-90.5 50t-96.5 34.5t-102 13h-231v-122q0 -20 -14 -34t-33 -14q-20 0 -34 14t-14 34v340q0 20 14 34t33 14q20 0 34 -14t14 -34v-122z" />
<glyph unicode="l" horiz-adv-x="882" d="M187 73q-28 0 -53 10.5t-43.5 28.5t-29.5 42t-11 52v255q0 20 14 34t34 14q19 0 33.5 -14t14.5 -34v-255q0 -15 11.5 -26t26.5 -11h600q20 0 34 -14t14 -34t-14 -34t-34 -14h-597z" />
<glyph unicode="m" horiz-adv-x="944" d="M894 121q0 -20 -14 -34t-34 -14t-34 14t-14 34v218q0 41 -5 41q-4 0 -28 -27l-220 -250q-13 -15 -32 -22.5t-41 -7.5t-41 7.5t-32 22.5l-220 250q-23 27 -28 27t-5 -41v-218q0 -20 -14 -34t-34 -14t-34 14t-14 34v292q0 40 23 68t63 28q24 0 43 -12t35 -29l230 -262 q5 -5 12.5 -10.5t15.5 -5.5t15.5 5.5t12.5 10.5l229 262h1q14 19 34 30t44 11q40 0 63 -28t23 -68v-292z" />
<glyph unicode="n" horiz-adv-x="877" d="M731 461q0 20 14 34t34 14t34 -14t14 -34v-291q0 -42 -27 -69.5t-69 -27.5q-14 0 -27.5 4t-24.5 11l-458 280q-19 11 -31.5 17.5t-20.5 6.5q-15 0 -19 -19t-4 -55v-197q0 -20 -14 -34t-34 -14t-34 14t-14 34v291q0 42 27 69.5t69 27.5q14 0 27.5 -4t24.5 -11l458 -280 q19 -11 31.5 -17.5t20.5 -6.5q15 0 19 19t4 55v197z" />
<glyph unicode="o" d="M659 169q34 0 56 12.5t34.5 30.5t17 39.5t4.5 39.5t-4.5 39.5t-17 39.5t-34.5 30.5t-56 12.5h-404q-35 0 -56.5 -12.5t-34 -30.5t-17 -39.5t-4.5 -39.5t4.5 -39.5t17 -39.5t34 -30.5t56.5 -12.5h404zM864 291q0 -38 -12.5 -76.5t-36.5 -70t-58 -51.5t-77 -20h-456 q-41 0 -73 20t-54.5 51.5t-34.5 70.5t-12 76t12.5 76t36.5 70.5t58 51.5t77 20h456q40 0 72.5 -20t55 -51.5t34.5 -70.5t12 -76z" />
<glyph unicode="p" horiz-adv-x="882" d="M50 461q0 20 14 34t34 14h599q28 0 52.5 -10.5t43 -28.5t29 -42t10.5 -52t-10.5 -52t-29 -42t-43 -28.5t-52.5 -10.5h-520q-13 -2 -22 -12t-9 -25v-85q0 -20 -14.5 -34t-33.5 -14q-20 0 -34 14t-14 34v96q0 25 9 47.5t25.5 39t38 26t47.5 9.5h531q15 0 26.5 10.5 t11.5 26.5q0 15 -11.5 26t-26.5 11h-603q-20 0 -34 14t-14 34z" />
<glyph unicode="q" d="M555 206q0 -15 8.5 -25t20.5 -12h75q34 0 56 12.5t34.5 30.5t17 39.5t4.5 39.5t-4.5 39.5t-17 39.5t-34.5 30.5t-56 12.5h-404q-35 0 -56.5 -12.5t-34 -30.5t-17 -39.5t-4.5 -39.5t4.5 -39.5t17 -39.5t34 -30.5t56.5 -12.5h86q20 0 34 -13.5t14 -33.5t-14 -34t-34 -14v-1 h-117q-41 0 -73 20t-54.5 51.5t-34.5 70.5t-12 76t12.5 76t36.5 70.5t58 51.5t77 20h456q40 0 72.5 -20t55 -51.5t34.5 -70.5t12 -76q0 -38 -12.5 -76.5t-36.5 -70t-58 -51.5t-77 -20h-101q-26 0 -47.5 9.5t-38 26t-25.5 38.5t-9 48v49q0 20 14 34t34 14q19 0 33.5 -14 t14.5 -34v-38z" />
<glyph unicode="r" horiz-adv-x="882" d="M693 243q27 -17 55 -36.5t57 -42.5q11 -8 19 -18.5t8 -24.5q0 -20 -14 -34t-34 -14q-8 0 -17 4t-17 10q-41 30 -84 58.5t-89.5 50t-96.5 34.5t-104 13h-199q-13 -2 -22 -12t-9 -25v-85q0 -20 -14.5 -34t-33.5 -14q-20 0 -34 14t-14 34v96q0 25 9.5 47.5t25.5 39t38 26 t48 9.5h530q15 0 26.5 10.5t11.5 26.5q0 15 -11.5 26t-26.5 11h-603q-20 0 -34 14t-14 34t14 34t34 14h599q28 0 52.5 -10.5t43 -28.5t29 -42t10.5 -52t-10.5 -52t-29 -42t-43 -28.5t-52.5 -10.5h-4z" />
<glyph unicode="s" horiz-adv-x="918" d="M183 243q-28 0 -52 10.5t-42 28.5t-28.5 42t-10.5 52t10.5 52t28.5 42t42 28.5t52 10.5h607q20 0 34 -14t14 -34t-14 -34t-34 -14h-609q-15 0 -26.5 -10.5t-11.5 -26.5q0 -15 11.5 -26t26.5 -11h553q28 0 52.5 -10.5t42.5 -28.5t28.5 -42.5t10.5 -52.5t-10.5 -52 t-28.5 -42t-42.5 -28t-52.5 -10h-606q-20 0 -34 14t-14 34t14 34t34 14h610q15 0 26 10.5t11 25.5q0 16 -11 27t-26 11h-555z" />
<glyph unicode="t" horiz-adv-x="884" d="M786 509q20 0 34 -14t14 -34t-14 -34t-34 -14h-296v-292q0 -20 -14 -34t-34 -14t-34 14t-14 34v292h-300q-18 2 -31 15.5t-13 32.5q0 20 14 34t34 14h688z" />
<glyph unicode="u" d="M146 291q0 -18 4.5 -39.5t17 -39.5t34 -30.5t56.5 -12.5h398q34 0 56 12.5t34.5 30.5t17 39.5t4.5 39.5v169q0 20 14 34t34 14t34 -14t14 -34v-169q0 -38 -12.5 -76.5t-36.5 -70t-58 -51.5t-77 -20h-456q-41 0 -73 20t-54.5 51.5t-34.5 70.5t-12 76v169q0 20 14 34t34 14 t34 -14t14 -34v-169z" />
<glyph unicode="v" horiz-adv-x="816" d="M681 491q13 18 37 18q20 0 34 -14t14 -34q0 -19 -10 -29l-1 -1l-242 -326q-17 -23 -45 -37.5t-60 -14.5q-30 0 -57 13t-44 36l-243 325q-5 8 -9.5 16t-4.5 18q0 20 14 34t34 14q25 0 38 -19l233 -311q7 -8 17.5 -17.5t21.5 -9.5t21.5 9.5t16.5 17.5z" />
<glyph unicode="w" horiz-adv-x="1012" d="M50 461q0 20 14 34t34 14t34 -14t14 -34v-170q0 -18 4.5 -39.5t17 -39.5t34 -30.5t56.5 -12.5h232q-16 28 -24 59.5t-8 62.5v170q0 20 14 34t34 14t34 -14t14 -34v-170q0 -18 4.5 -39t16 -39.5t32 -31t52.5 -12.5h95q34 0 56 12.5t34.5 30.5t17 39.5t4.5 39.5v170 q0 20 14 34t34 14t34 -14t14 -34v-170q0 -38 -12.5 -76.5t-36.5 -70t-58 -51.5t-77 -20h-554q-41 0 -73 20t-54.5 51.5t-34.5 70t-12 76.5v170z" />
<glyph unicode="x" horiz-adv-x="904" d="M835 423q-51 -45 -94 -77.5t-81 -54.5q38 -22 79.5 -54.5t95.5 -77.5q8 -7 13.5 -17t5.5 -21q0 -20 -14 -34t-34 -14q-17 0 -34 14q-64 56 -107.5 87.5t-78 46.5t-65.5 18.5t-70 3.5h-22q-33 0 -61 -5t-60 -21t-73.5 -47t-102.5 -83q-16 -14 -34 -14q-20 0 -34 14t-14 34 q0 11 5.5 21t13.5 17q100 89 175 131q-38 22 -80.5 54.5t-94.5 78.5q-8 7 -13.5 17t-5.5 21q0 20 14 34t34 14q10 0 18 -4t16 -10q61 -54 103 -85t75.5 -46.5t63 -20t64.5 -4.5h15q39 0 69 3t64 18t77.5 46.5t108.5 88.5q17 14 34 14q20 0 34 -14t14 -34q0 -11 -5.5 -21 t-13.5 -17z" />
<glyph unicode="y" horiz-adv-x="904" d="M500 121q0 -20 -14 -34t-34 -14t-34 14t-14 34v122q-38 0 -74 10t-75.5 31.5t-85 55.5t-100.5 83q-8 7 -13.5 17t-5.5 21q0 20 14 34t34 14q10 0 18 -4t16 -10q64 -56 107.5 -87.5t78 -46.5t65.5 -18.5t70 -3.5t69 3t64 18t77.5 46.5t108.5 88.5q17 14 34 14q20 0 34 -14 t14 -34q0 -11 -5.5 -21t-13.5 -17q-55 -48 -101 -82t-86.5 -56t-76.5 -32t-71 -10v-122z" />
<glyph unicode="z" horiz-adv-x="905" d="M98 413q-20 0 -34 14t-14 34t14 34t34 14h661q40 0 68 -28t28 -68q0 -34 -20 -59.5t-51 -33.5l-561 -133q-24 -6 -24 -11q0 -7 43 -7h565q20 0 34 -14t14 -34t-14 -34t-34 -14h-661q-40 0 -68 28t-28 68q0 31 17 57t46 33l570 134q16 4 16 10q0 10 -36 10h-565z" />
<glyph unicode="{" horiz-adv-x="4221" />
<glyph unicode="|" horiz-adv-x="915" d="M50 43q0 11 4 22l283 565q17 33 48.5 53.5t71.5 20.5t72 -20.5t49 -53.5l278 -561q4 -7 6.5 -13t2.5 -13q0 -20 -14 -33.5t-34 -13.5q-30 0 -43 25l-274 552q-6 12 -17.5 19.5t-25.5 7.5t-25 -7.5t-17 -19.5l-271 -545q-6 -13 -17.5 -22.5t-28.5 -9.5q-20 0 -34 13.5 t-14 33.5z" />
<glyph unicode="}" horiz-adv-x="4196" />
<glyph unicode="~" horiz-adv-x="0" d="M148 509q20 0 34 -14t14 -34t-14 -34t-34 -14h-299q-18 2 -31 15.5t-13 32.5q0 20 14 34t34 14h295z" />
<glyph unicode="&#xa1;" horiz-adv-x="196" d="M160 447q0 -26 -18 -44t-44 -18t-44 18t-18 44t18 44t44 18t44 -18t18 -44zM50 277q0 20 14 34t34 14t34 -14t14 -34v-170q0 -20 -14 -34t-34 -14t-34 14t-14 34v170z" />
<glyph unicode="&#xa2;" horiz-adv-x="882" d="M402 74q0 26 18 44t44 18t44 -18t18 -44t-18 -44t-44 -18t-44 18t-18 44zM402 508q0 26 18 44t44 18t44 -18t18 -44t-18 -44t-44 -18t-44 18t-18 44zM50 291q0 28 10.5 52t29 42t43 28.5t52.5 10.5h599q20 0 34 -14t14 -34t-14 -34t-34 -14h-603q-15 0 -26.5 -11 t-11.5 -26t11.5 -26t26.5 -11h603q20 0 34 -14t14 -34t-14 -34t-34 -14h-599q-28 0 -52.5 10.5t-43 28.5t-29 42t-10.5 52z" />
<glyph unicode="&#xa3;" horiz-adv-x="884" d="M289 281q-2 -29 -10 -57.5t-22 -54.5h529q20 0 34 -14t14 -34t-14 -34t-34 -14h-688q-20 0 -34 14t-14 34q0 19 13 33t31 14q28 0 46.5 11t30 28t16.5 36.5t6 37.5h-114q-12 0 -20.5 8.5t-8.5 20.5t8.5 20.5t20.5 8.5h114v37q0 28 10.5 52t28.5 42t42 28.5t52 10.5h167 q20 0 34 -14t14 -34t-14 -34t-34 -14h-166q-15 0 -26.5 -10.5t-11.5 -26.5v-37h224q12 0 20.5 -8.5t8.5 -20.5t-8.5 -20.5t-20.5 -8.5h-224z" />
<glyph unicode="&#xa4;" horiz-adv-x="915" d="M613 267q10 0 17 -7t7 -17t-7 -17t-17 -7h-453q11 -21 34 -35.5t61 -14.5h562q20 0 34 -14t14 -34t-14 -34t-34 -14h-593q-31 0 -57 12.5t-46.5 32.5t-35.5 46.5t-24 54.5h-56q-6 0 -12.5 7.5t-6.5 16.5q0 10 7 17t16 7h42q-1 4 -1 12v12v12q0 8 1 12h-47q-6 0 -12.5 7.5 t-6.5 16.5q0 10 7 17t16 7h53q9 29 25 55.5t37.5 46.5t49.5 32t61 12h583q20 0 34 -14t14 -34t-14 -34t-34 -14h-562q-38 0 -61 -14.5t-34 -35.5h502q10 0 17 -7t7 -17t-7 -17t-17 -7h-518q-1 -5 -1 -13v-11v-12q0 -8 1 -12h469z" />
<glyph unicode="&#xa5;" horiz-adv-x="904" d="M500 121q0 -20 -14 -34t-34 -14t-34 14t-14 34v26h-285q-12 0 -20.5 8.5t-8.5 20.5t8.5 20.5t20.5 8.5h666q12 0 20.5 -8.5t8.5 -20.5t-8.5 -20.5t-20.5 -8.5h-285v-26zM119 243q-12 0 -20.5 8.5t-8.5 20.5t8.5 20.5t20.5 8.5h107q-34 21 -72.5 50.5t-84.5 71.5 q-8 7 -13.5 17t-5.5 21q0 20 14 34t34 14q10 0 18 -4t16 -10q64 -56 107.5 -87.5t78 -46.5t65.5 -18.5t70 -3.5t69 3t64 18t77.5 46.5t108.5 88.5q17 14 34 14q20 0 34 -14t14 -34q0 -11 -5.5 -21t-13.5 -17q-93 -83 -159 -122h109q12 0 20.5 -8.5t8.5 -20.5t-8.5 -20.5 t-20.5 -8.5h-666z" />
<glyph unicode="&#xa8;" horiz-adv-x="440" d="M280 611q0 26 18 44t44 18t44 -18t18 -44t-18 -44t-44 -18t-44 18t-18 44zM35 611q0 26 18 44t44 18t44 -18t18 -44t-18 -44t-44 -18t-44 18t-18 44z" />
<glyph unicode="&#xa9;" d="M148 291q0 28 10.5 52t29 42t43 28.5t52.5 10.5h399q20 0 34 -14t14 -34t-14 -34t-34 -14h-403q-15 0 -26.5 -11t-11.5 -26t11.5 -26t26.5 -11h403q20 0 34 -14t14 -34t-14 -34t-34 -14h-399q-28 0 -52.5 10.5t-43 28.5t-29 42t-10.5 52zM283 467q-36 0 -68 -14t-56 -38 t-38 -56t-14 -68t14 -68t38 -56t56 -38t68 -14h352q36 0 68 14t56 38t38 56t14 68t-14 68t-38 56t-56 38t-68 14h-352zM283 73q-45 0 -84.5 17t-69.5 47t-47 69.5t-17 84.5t17 84.5t47 69.5t69.5 47t84.5 17h352q45 0 84.5 -17t69.5 -47t47 -69.5t17 -84.5t-17 -84.5 t-47 -69.5t-69.5 -47t-84.5 -17h-352z" />
<glyph unicode="&#xab;" horiz-adv-x="492" d="M454 121q0 -20 -14 -34t-34 -14q-22 0 -37 18l-133 170q-11 14 -11 30t11 30l133 170q15 18 37 18q20 0 34 -14t14 -34q0 -16 -11 -30l-110 -140l110 -140q11 -14 11 -30zM243 121q0 -20 -14 -34t-34 -14q-22 0 -37 18l-133 170q-11 14 -11 30t11 30l133 170q15 18 37 18 q20 0 34 -14t14 -34q0 -16 -11 -30l-110 -140l110 -140q11 -14 11 -30z" />
<glyph unicode="&#xac;" horiz-adv-x="557" d="M546 217q0 -20 -12.5 -34t-32.5 -14t-34 14t-14 34v85q0 15 -11.5 26t-26.5 11h-353q-20 0 -34 14t-14 34t14 34t34 14h349q28 0 52.5 -10.5t43 -28.5t29 -42t10.5 -52v-85z" />
<glyph unicode="&#xad;" horiz-adv-x="492" d="M394 339q20 0 34 -14t14 -34t-14 -34t-34 -14h-300q-18 2 -31 15.5t-13 32.5q0 20 14 34t34 14h296z" />
<glyph unicode="&#xae;" d="M606 303q15 0 15 12q0 13 -15 13h-277q-12 0 -22 -7t-14 -18h313zM720 336q0 -26 -6 -40.5t-17 -24.5q15 -14 24 -31t9 -34q0 -20 -14 -34t-34 -14t-30 10.5t-19 20.5q-6 7 -17.5 10.5t-23.5 5t-23 2t-16 0.5h-262v-1q0 -20 -14 -34t-34 -14t-32.5 14t-12.5 34v85 q0 28 10.5 52t29 42t43 28.5t52.5 10.5h299q19 0 35 -9t28 -22.5t18.5 -28.5t6.5 -28zM283 467q-36 0 -68 -14t-56 -38t-38 -56t-14 -68t14 -68t38 -56t56 -38t68 -14h352q36 0 68 14t56 38t38 56t14 68t-14 68t-38 56t-56 38t-68 14h-352zM283 73q-45 0 -84.5 17t-69.5 47 t-47 69.5t-17 84.5t17 84.5t47 69.5t69.5 47t84.5 17h352q45 0 84.5 -17t69.5 -47t47 -69.5t17 -84.5t-17 -84.5t-47 -69.5t-69.5 -47t-84.5 -17h-352z" />
<glyph unicode="&#xb4;" horiz-adv-x="285" d="M193 710q17 10 36 4.5t29 -22.5t5 -36t-22 -29l-148 -85q-17 -10 -36 -4.5t-29 22.5t-5 36t22 29z" />
<glyph unicode="&#xb6;" horiz-adv-x="340" d="M303 509q12 0 20.5 -8.5t8.5 -20.5t-8.5 -20.5t-20.5 -8.5h-11v-349q0 -12 -8.5 -20.5t-20.5 -8.5t-20.5 8.5t-8.5 20.5v349h-52v-349q0 -12 -8.5 -20.5t-20.5 -8.5t-20.5 8.5t-8.5 20.5v215q-20 0 -37 7.5t-30.5 21t-21 30.5t-7.5 37q0 19 7.5 36.5t21 31t30.5 21 t37 7.5h179z" />
<glyph unicode="&#xbb;" horiz-adv-x="492" d="M235 121q0 16 11 30l110 140l-110 140q-11 14 -11 30q0 20 14 34t34 14q22 0 37 -18l133 -170q11 -14 11 -30t-11 -30l-133 -170q-15 -18 -37 -18q-20 0 -34 14t-14 34zM24 121q0 16 11 30l110 140l-110 140q-11 14 -11 30q0 20 14 34t34 14q22 0 37 -18l133 -170 q11 -14 11 -30t-11 -30l-133 -170q-15 -18 -37 -18q-20 0 -34 14t-14 34z" />
<glyph unicode="&#xbf;" horiz-adv-x="822" d="M532 447q0 -26 -18 -44t-44 -18t-44 18t-18 44t18 44t44 18t44 -18t18 -44zM772 192q0 -28 -11 -52t-30 -42t-44 -28.5t-53 -10.5h-449q-28 0 -52.5 10.5t-43 28.5t-29 42t-10.5 52t10.5 52t29 42t43 28.5t52.5 10.5h299q20 0 34 -14t14 -34t-14 -34t-34 -14h-303 q-15 0 -26.5 -10.5t-11.5 -26.5q0 -15 11.5 -26t26.5 -11h460q14 2 24.5 12t10.5 25q0 20 14 34t34 14t34 -14t14 -34z" />
<glyph unicode="&#xc0;" horiz-adv-x="816" d="M346 181q0 26 18 44t44 18t44 -18t18 -44t-18 -44t-44 -18t-44 18t-18 44zM135 91q-14 -18 -37 -18q-20 0 -34 14t-14 34q0 19 10 29l243 327q17 23 45 37.5t60 14.5q30 0 57 -13t44 -36l243 -325q5 -8 9.5 -16t4.5 -18q0 -20 -14 -34t-34 -14q-25 0 -38 19l-233 311 q-7 8 -17.5 17.5t-21.5 9.5t-21.5 -9.5t-16.5 -17.5zM508 625q17 -10 22 -29t-5 -36t-29 -22.5t-36 4.5l-148 85q-17 10 -22 29t5 36t29 22.5t36 -4.5z" />
<glyph unicode="&#xc1;" horiz-adv-x="816" d="M346 181q0 26 18 44t44 18t44 -18t18 -44t-18 -44t-44 -18t-44 18t-18 44zM135 91q-14 -18 -37 -18q-20 0 -34 14t-14 34q0 19 10 29l243 327q17 23 45 37.5t60 14.5q30 0 57 -13t44 -36l243 -325q5 -8 9.5 -16t4.5 -18q0 -20 -14 -34t-34 -14q-25 0 -38 19l-233 311 q-7 8 -17.5 17.5t-21.5 9.5t-21.5 -9.5t-16.5 -17.5zM461 710q17 10 36 4.5t29 -22.5t5 -36t-22 -29l-148 -85q-17 -10 -36 -4.5t-29 22.5t-5 36t22 29z" />
<glyph unicode="&#xc2;" horiz-adv-x="816" d="M346 181q0 26 18 44t44 18t44 -18t18 -44t-18 -44t-44 -18t-44 18t-18 44zM135 91q-14 -18 -37 -18q-20 0 -34 14t-14 34q0 19 10 29l243 327q17 23 45 37.5t60 14.5q30 0 57 -13t44 -36l243 -325q5 -8 9.5 -16t4.5 -18q0 -20 -14 -34t-34 -14q-25 0 -38 19l-233 311 q-7 8 -17.5 17.5t-21.5 9.5t-21.5 -9.5t-16.5 -17.5zM264 581q0 20 15 35l95 96l3 2q12 14 34 14t34 -14l3 -2l95 -96q15 -15 15 -35t-14.5 -34.5t-34.5 -14.5q-10 0 -17.5 4t-15.5 11l-65 64l-65 -64q-8 -7 -15.5 -11t-17.5 -4q-20 0 -34.5 14.5t-14.5 34.5z" />
<glyph unicode="&#xc3;" horiz-adv-x="816" d="M346 181q0 26 18 44t44 18t44 -18t18 -44t-18 -44t-44 -18t-44 18t-18 44zM135 91q-14 -18 -37 -18q-20 0 -34 14t-14 34q0 19 10 29l243 327q17 23 45 37.5t60 14.5q30 0 57 -13t44 -36l243 -325q5 -8 9.5 -16t4.5 -18q0 -20 -14 -34t-34 -14q-25 0 -38 19l-233 311 q-7 8 -17.5 17.5t-21.5 9.5t-21.5 -9.5t-16.5 -17.5zM488 552q-55 0 -90 35q-16 16 -24 28.5t-13.5 20.5t-11.5 12.5t-19 4.5q-16 0 -27.5 -9.5t-15.5 -23.5q-4 -16 -16.5 -26.5t-29.5 -10.5q-20 0 -34 14t-14 34q0 9 3 17q12 45 49 73t85 28q54 0 89 -36q16 -17 24 -29.5 t14 -20.5t12.5 -11.5t18.5 -3.5q16 0 27.5 9.5t15.5 23.5q4 16 16.5 26.5t29.5 10.5q20 0 34 -14t14 -34q0 -10 -3 -17q-12 -45 -49 -73t-85 -28z" />
<glyph unicode="&#xc4;" horiz-adv-x="816" d="M346 181q0 26 18 44t44 18t44 -18t18 -44t-18 -44t-44 -18t-44 18t-18 44zM135 91q-14 -18 -37 -18q-20 0 -34 14t-14 34q0 19 10 29l243 327q17 23 45 37.5t60 14.5q30 0 57 -13t44 -36l243 -325q5 -8 9.5 -16t4.5 -18q0 -20 -14 -34t-34 -14q-25 0 -38 19l-233 311 q-7 8 -17.5 17.5t-21.5 9.5t-21.5 -9.5t-16.5 -17.5zM471 611q0 26 18 44t44 18t44 -18t18 -44t-18 -44t-44 -18t-44 18t-18 44zM226 611q0 26 18 44t44 18t44 -18t18 -44t-18 -44t-44 -18t-44 18t-18 44z" />
<glyph unicode="&#xc5;" horiz-adv-x="816" d="M361 645q0 -20 13.5 -33.5t33.5 -13.5q19 0 32.5 13.5t13.5 33.5q0 19 -13.5 32.5t-32.5 13.5q-20 0 -33.5 -13.5t-13.5 -32.5zM315 645q0 19 7.5 36t20 29.5t29.5 20t36 7.5t36 -7.5t29.5 -20t20 -29.5t7.5 -36t-7.5 -36t-20 -29.5t-29.5 -20t-36 -7.5t-36 7.5t-29.5 20 t-20 29.5t-7.5 36zM346 181q0 26 18 44t44 18t44 -18t18 -44t-18 -44t-44 -18t-44 18t-18 44zM135 91q-14 -18 -37 -18q-20 0 -34 14t-14 34q0 19 10 29l243 327q17 23 45 37.5t60 14.5q30 0 57 -13t44 -36l243 -325q5 -8 9.5 -16t4.5 -18q0 -20 -14 -34t-34 -14 q-25 0 -38 19l-233 311q-7 8 -17.5 17.5t-21.5 9.5t-21.5 -9.5t-16.5 -17.5z" />
<glyph unicode="&#xc6;" horiz-adv-x="1448" d="M1350 509q20 0 34 -14t14 -34t-14 -34t-34 -14h-667q-20 0 -34 14t-14 34t14 34t34 14h667zM346 181q0 26 18 44t44 18t44 -18t18 -44t-18 -44t-44 -18t-44 18t-18 44zM1308 339q20 0 34 -14t14 -34t-14 -34t-34 -14h-498q-20 0 -34 14t-14 34t14 34t34 14h498zM447 403 q-7 8 -17.5 17.5t-21.5 9.5t-21.5 -9.5t-16.5 -17.5l-235 -312q-14 -18 -37 -18q-20 0 -34 14t-14 34q0 19 10 29l243 327q17 23 45 37.5t60 14.5q30 0 57 -13t44 -36l205 -275q13 -17 33 -26.5t52 -9.5h551q20 0 34 -14t14 -34t-14 -34t-34 -14h-583q-40 0 -71 20t-54 50z " />
<glyph unicode="&#xc7;" horiz-adv-x="915" d="M50 291q0 37 12.5 76t36.5 70.5t58 51.5t77 20h583q20 0 34 -14t14 -34t-14 -34t-34 -14h-562q-35 0 -56.5 -12.5t-34 -30.5t-17 -39.5t-4.5 -39.5t4.5 -39.5t17 -39.5t34 -30.5t56.5 -12.5h562q20 0 34 -14t14 -34t-14 -34t-34 -14h-297v-8q0 -23 -8.5 -47t-33.5 -47 q-8 -8 -17 -13t-20 -5q-20 0 -34 13.5t-14 33.5q0 23 16 36q2 2 6 9t6 28h-197q-41 0 -73 20t-54.5 51.5t-34.5 70t-12 76.5z" />
<glyph unicode="&#xc8;" horiz-adv-x="905" d="M765 339q20 0 34 -14t14 -34t-14 -34t-34 -14h-498q-20 0 -34 14t-14 34t14 34t34 14h498zM256 413q-35 0 -56.5 -12.5t-34 -30.5t-17 -39.5t-4.5 -39.5t4.5 -39.5t17 -39.5t34 -30.5t56.5 -12.5h551q20 0 34 -14t14 -34t-14 -34t-34 -14h-583q-41 0 -73 20t-54.5 51.5 t-34.5 70t-12 76.5q0 37 12.5 76t36.5 70.5t58 51.5t77 20h573q20 0 34 -14t14 -34t-14 -34t-34 -14h-551zM548 625q17 -10 22 -29t-5 -36t-29 -22.5t-36 4.5l-148 85q-17 10 -22 29t5 36t29 22.5t36 -4.5z" />
<glyph unicode="&#xc9;" horiz-adv-x="905" d="M765 339q20 0 34 -14t14 -34t-14 -34t-34 -14h-498q-20 0 -34 14t-14 34t14 34t34 14h498zM256 413q-35 0 -56.5 -12.5t-34 -30.5t-17 -39.5t-4.5 -39.5t4.5 -39.5t17 -39.5t34 -30.5t56.5 -12.5h551q20 0 34 -14t14 -34t-14 -34t-34 -14h-583q-41 0 -73 20t-54.5 51.5 t-34.5 70t-12 76.5q0 37 12.5 76t36.5 70.5t58 51.5t77 20h573q20 0 34 -14t14 -34t-14 -34t-34 -14h-551zM534 710q17 10 36 4.5t29 -22.5t5 -36t-22 -29l-148 -85q-17 -10 -36 -4.5t-29 22.5t-5 36t22 29z" />
<glyph unicode="&#xca;" horiz-adv-x="905" d="M765 339q20 0 34 -14t14 -34t-14 -34t-34 -14h-498q-20 0 -34 14t-14 34t14 34t34 14h498zM256 413q-35 0 -56.5 -12.5t-34 -30.5t-17 -39.5t-4.5 -39.5t4.5 -39.5t17 -39.5t34 -30.5t56.5 -12.5h551q20 0 34 -14t14 -34t-14 -34t-34 -14h-583q-41 0 -73 20t-54.5 51.5 t-34.5 70t-12 76.5q0 37 12.5 76t36.5 70.5t58 51.5t77 20h573q20 0 34 -14t14 -34t-14 -34t-34 -14h-551zM302 581q0 20 15 35l95 96l3 2q12 14 34 14t34 -14l3 -2l95 -96q15 -15 15 -35t-14.5 -34.5t-34.5 -14.5q-10 0 -17.5 4t-15.5 11l-65 64l-65 -64q-8 -7 -15.5 -11 t-17.5 -4q-20 0 -34.5 14.5t-14.5 34.5z" />
<glyph unicode="&#xcb;" horiz-adv-x="905" d="M765 339q20 0 34 -14t14 -34t-14 -34t-34 -14h-498q-20 0 -34 14t-14 34t14 34t34 14h498zM256 413q-35 0 -56.5 -12.5t-34 -30.5t-17 -39.5t-4.5 -39.5t4.5 -39.5t17 -39.5t34 -30.5t56.5 -12.5h551q20 0 34 -14t14 -34t-14 -34t-34 -14h-583q-41 0 -73 20t-54.5 51.5 t-34.5 70t-12 76.5q0 37 12.5 76t36.5 70.5t58 51.5t77 20h573q20 0 34 -14t14 -34t-14 -34t-34 -14h-551zM526 611q0 26 18 44t44 18t44 -18t18 -44t-18 -44t-44 -18t-44 18t-18 44zM281 611q0 26 18 44t44 18t44 -18t18 -44t-18 -44t-44 -18t-44 18t-18 44z" />
<glyph unicode="&#xcc;" horiz-adv-x="196" d="M146 121q0 -20 -14 -34t-34 -14t-34 14t-14 34v340q0 20 14 34t34 14t34 -14t14 -34v-340zM200 625q17 -10 22 -29t-5 -36t-29 -22.5t-36 4.5l-148 85q-17 10 -22 29t5 36t29 22.5t36 -4.5z" />
<glyph unicode="&#xcd;" horiz-adv-x="196" d="M146 121q0 -20 -14 -34t-34 -14t-34 14t-14 34v340q0 20 14 34t34 14t34 -14t14 -34v-340zM152 710q17 10 36 4.5t29 -22.5t5 -36t-22 -29l-148 -85q-17 -10 -36 -4.5t-29 22.5t-5 36t22 29z" />
<glyph unicode="&#xce;" horiz-adv-x="196" d="M146 121q0 -20 -14 -34t-34 -14t-34 14t-14 34v340q0 20 14 34t34 14t34 -14t14 -34v-340zM-41 581q0 20 15 35l95 96l3 2q12 14 34 14t34 -14l3 -2l95 -96q15 -15 15 -35t-14.5 -34.5t-34.5 -14.5q-10 0 -17.5 4t-15.5 11l-65 64l-65 -64q-8 -7 -15.5 -11t-17.5 -4 q-20 0 -34.5 14.5t-14.5 34.5z" />
<glyph unicode="&#xcf;" horiz-adv-x="196" d="M146 121q0 -20 -14 -34t-34 -14t-34 14t-14 34v340q0 20 14 34t34 14t34 -14t14 -34v-340zM130 635q0 26 18 44t44 18t44 -18t18 -44t-18 -44t-44 -18t-44 18t-18 44zM-54 635q0 26 17.5 44t43.5 18t44 -18t18 -44t-18 -44t-44 -18t-43.5 18t-17.5 44z" />
<glyph unicode="&#xd0;" horiz-adv-x="915" d="M146 281v-112h514q34 0 56 12.5t34.5 30.5t17 39.5t4.5 39.5t-4.5 39.5t-17 39.5t-34.5 30.5t-56 12.5h-514v-74h285q12 0 20.5 -8.5t8.5 -20.5t-8.5 -20.5t-20.5 -8.5h-285zM865 291q0 -37 -12 -76t-34.5 -70.5t-55 -51.5t-72.5 -20h-593q-20 0 -34 14t-14 34v160h-52 q-12 0 -20.5 8.5t-8.5 20.5t8.5 20.5t20.5 8.5h52v122q0 20 14 34t34 14h583q43 0 77 -20t58 -51.5t36.5 -70.5t12.5 -76z" />
<glyph unicode="&#xd1;" horiz-adv-x="877" d="M731 291q0 18 -4.5 39.5t-17 39.5t-34.5 30.5t-56 12.5h-361q-35 0 -56.5 -12.5t-34 -30.5t-17 -39.5t-4.5 -39.5v-170q0 -20 -14 -34t-34 -14t-34 14t-14 34v170q0 37 12.5 76t36.5 70.5t58 51.5t77 20h419q40 0 72.5 -20t55 -51.5t34.5 -70.5t12 -76v-170 q0 -20 -14 -34t-34 -14t-34 14t-14 34v170zM507 552q-55 0 -90 35q-16 16 -24 28.5t-13.5 20.5t-11.5 12.5t-19 4.5q-16 0 -27.5 -9.5t-15.5 -23.5q-4 -16 -16.5 -26.5t-29.5 -10.5q-20 0 -34 14t-14 34q0 9 3 17q12 45 49 73t85 28q54 0 89 -36q16 -17 24 -29.5t14 -20.5 t12.5 -11.5t18.5 -3.5q16 0 27.5 9.5t15.5 23.5q4 16 16.5 26.5t29.5 10.5q20 0 34 -14t14 -34q0 -10 -3 -17q-12 -45 -49 -73t-85 -28z" />
<glyph unicode="&#xd2;" d="M659 169q34 0 56 12.5t34.5 30.5t17 39.5t4.5 39.5t-4.5 39.5t-17 39.5t-34.5 30.5t-56 12.5h-404q-35 0 -56.5 -12.5t-34 -30.5t-17 -39.5t-4.5 -39.5t4.5 -39.5t17 -39.5t34 -30.5t56.5 -12.5h404zM864 291q0 -38 -12.5 -76.5t-36.5 -70t-58 -51.5t-77 -20h-456 q-41 0 -73 20t-54.5 51.5t-34.5 70.5t-12 76t12.5 76t36.5 70.5t58 51.5t77 20h456q40 0 72.5 -20t55 -51.5t34.5 -70.5t12 -76zM551 625q17 -10 22 -29t-5 -36t-29 -22.5t-36 4.5l-148 85q-17 10 -22 29t5 36t29 22.5t36 -4.5z" />
<glyph unicode="&#xd3;" d="M659 169q34 0 56 12.5t34.5 30.5t17 39.5t4.5 39.5t-4.5 39.5t-17 39.5t-34.5 30.5t-56 12.5h-404q-35 0 -56.5 -12.5t-34 -30.5t-17 -39.5t-4.5 -39.5t4.5 -39.5t17 -39.5t34 -30.5t56.5 -12.5h404zM864 291q0 -38 -12.5 -76.5t-36.5 -70t-58 -51.5t-77 -20h-456 q-41 0 -73 20t-54.5 51.5t-34.5 70.5t-12 76t12.5 76t36.5 70.5t58 51.5t77 20h456q40 0 72.5 -20t55 -51.5t34.5 -70.5t12 -76zM503 710q17 10 36 4.5t29 -22.5t5 -36t-22 -29l-148 -85q-17 -10 -36 -4.5t-29 22.5t-5 36t22 29z" />
<glyph unicode="&#xd4;" d="M659 169q34 0 56 12.5t34.5 30.5t17 39.5t4.5 39.5t-4.5 39.5t-17 39.5t-34.5 30.5t-56 12.5h-404q-35 0 -56.5 -12.5t-34 -30.5t-17 -39.5t-4.5 -39.5t4.5 -39.5t17 -39.5t34 -30.5t56.5 -12.5h404zM864 291q0 -38 -12.5 -76.5t-36.5 -70t-58 -51.5t-77 -20h-456 q-41 0 -73 20t-54.5 51.5t-34.5 70.5t-12 76t12.5 76t36.5 70.5t58 51.5t77 20h456q40 0 72.5 -20t55 -51.5t34.5 -70.5t12 -76zM295 581q0 20 15 35l95 96l3 2q12 14 34 14t34 -14l3 -2l95 -96q15 -15 15 -35t-14.5 -34.5t-34.5 -14.5q-10 0 -17.5 4t-15.5 11l-65 64 l-65 -64q-8 -7 -15.5 -11t-17.5 -4q-20 0 -34.5 14.5t-14.5 34.5z" />
<glyph unicode="&#xd5;" d="M659 169q34 0 56 12.5t34.5 30.5t17 39.5t4.5 39.5t-4.5 39.5t-17 39.5t-34.5 30.5t-56 12.5h-404q-35 0 -56.5 -12.5t-34 -30.5t-17 -39.5t-4.5 -39.5t4.5 -39.5t17 -39.5t34 -30.5t56.5 -12.5h404zM864 291q0 -38 -12.5 -76.5t-36.5 -70t-58 -51.5t-77 -20h-456 q-41 0 -73 20t-54.5 51.5t-34.5 70.5t-12 76t12.5 76t36.5 70.5t58 51.5t77 20h456q40 0 72.5 -20t55 -51.5t34.5 -70.5t12 -76zM526 552q-55 0 -90 35q-16 16 -24 28.5t-13.5 20.5t-11.5 12.5t-19 4.5q-16 0 -27.5 -9.5t-15.5 -23.5q-4 -16 -16.5 -26.5t-29.5 -10.5 q-20 0 -34 14t-14 34q0 9 3 17q12 45 49 73t85 28q54 0 89 -36q16 -17 24 -29.5t14 -20.5t12.5 -11.5t18.5 -3.5q16 0 27.5 9.5t15.5 23.5q4 16 16.5 26.5t29.5 10.5q20 0 34 -14t14 -34q0 -10 -3 -17q-12 -45 -49 -73t-85 -28z" />
<glyph unicode="&#xd6;" d="M659 169q34 0 56 12.5t34.5 30.5t17 39.5t4.5 39.5t-4.5 39.5t-17 39.5t-34.5 30.5t-56 12.5h-404q-35 0 -56.5 -12.5t-34 -30.5t-17 -39.5t-4.5 -39.5t4.5 -39.5t17 -39.5t34 -30.5t56.5 -12.5h404zM864 291q0 -38 -12.5 -76.5t-36.5 -70t-58 -51.5t-77 -20h-456 q-41 0 -73 20t-54.5 51.5t-34.5 70.5t-12 76t12.5 76t36.5 70.5t58 51.5t77 20h456q40 0 72.5 -20t55 -51.5t34.5 -70.5t12 -76zM516 611q0 26 18 44t44 18t44 -18t18 -44t-18 -44t-44 -18t-44 18t-18 44zM271 611q0 26 18 44t44 18t44 -18t18 -44t-18 -44t-44 -18t-44 18 t-18 44z" />
<glyph unicode="&#xd8;" d="M143 291q0 -10 1 -20t4 -21l564 152q-24 11 -53 11h-404q-35 0 -56.5 -12.5t-34 -30.5t-17 -39.5t-4.5 -39.5zM176 197q13 -13 32 -20.5t47 -7.5h404q34 0 56 12.5t34.5 30.5t17 39.5t4.5 39.5q0 14 -3 30.5t-10 32.5zM864 291q0 -38 -12.5 -76.5t-36.5 -70t-58 -51.5 t-77 -20h-456q-41 0 -73 20t-54.5 51.5t-34.5 70.5t-12 76t12.5 76t36.5 70.5t58 51.5t77 20h456q40 0 72.5 -20t55 -51.5t34.5 -70.5t12 -76z" />
<glyph unicode="&#xd9;" d="M146 291q0 -18 4.5 -39.5t17 -39.5t34 -30.5t56.5 -12.5h398q34 0 56 12.5t34.5 30.5t17 39.5t4.5 39.5v170q0 20 14 34t34 14t34 -14t14 -34v-170q0 -38 -12.5 -76.5t-36.5 -70t-58 -51.5t-77 -20h-456q-41 0 -73 20t-54.5 51.5t-34.5 70.5t-12 76v170q0 20 14 34t34 14 t34 -14t14 -34v-170zM551 625q17 -10 22 -29t-5 -36t-29 -22.5t-36 4.5l-148 85q-17 10 -22 29t5 36t29 22.5t36 -4.5z" />
<glyph unicode="&#xda;" d="M146 291q0 -18 4.5 -39.5t17 -39.5t34 -30.5t56.5 -12.5h398q34 0 56 12.5t34.5 30.5t17 39.5t4.5 39.5v170q0 20 14 34t34 14t34 -14t14 -34v-170q0 -38 -12.5 -76.5t-36.5 -70t-58 -51.5t-77 -20h-456q-41 0 -73 20t-54.5 51.5t-34.5 70.5t-12 76v170q0 20 14 34t34 14 t34 -14t14 -34v-170zM513 710q17 10 36 4.5t29 -22.5t5 -36t-22 -29l-148 -85q-17 -10 -36 -4.5t-29 22.5t-5 36t22 29z" />
<glyph unicode="&#xdb;" d="M146 291q0 -18 4.5 -39.5t17 -39.5t34 -30.5t56.5 -12.5h398q34 0 56 12.5t34.5 30.5t17 39.5t4.5 39.5v170q0 20 14 34t34 14t34 -14t14 -34v-170q0 -38 -12.5 -76.5t-36.5 -70t-58 -51.5t-77 -20h-456q-41 0 -73 20t-54.5 51.5t-34.5 70.5t-12 76v170q0 20 14 34t34 14 t34 -14t14 -34v-170zM319 581q0 20 15 35l95 96l3 2q12 14 34 14t34 -14l3 -2l95 -96q15 -15 15 -35t-14.5 -34.5t-34.5 -14.5q-10 0 -17.5 4t-15.5 11l-65 64l-65 -64q-8 -7 -15.5 -11t-17.5 -4q-20 0 -34.5 14.5t-14.5 34.5z" />
<glyph unicode="&#xdc;" d="M146 291q0 -18 4.5 -39.5t17 -39.5t34 -30.5t56.5 -12.5h398q34 0 56 12.5t34.5 30.5t17 39.5t4.5 39.5v170q0 20 14 34t34 14t34 -14t14 -34v-170q0 -38 -12.5 -76.5t-36.5 -70t-58 -51.5t-77 -20h-456q-41 0 -73 20t-54.5 51.5t-34.5 70.5t-12 76v170q0 20 14 34t34 14 t34 -14t14 -34v-170zM520 611q0 26 18 44t44 18t44 -18t18 -44t-18 -44t-44 -18t-44 18t-18 44zM275 611q0 26 18 44t44 18t44 -18t18 -44t-18 -44t-44 -18t-44 18t-18 44z" />
<glyph unicode="&#xdd;" horiz-adv-x="904" d="M391 121q0 26 18 44t44 18t44 -18t18 -44t-18 -44t-44 -18t-44 18t-18 44zM453 335q39 0 69 3.5t64 19.5t77.5 48t108.5 89q17 14 34 14q20 0 34 -14t14 -34q0 -11 -5.5 -21t-13.5 -17q-63 -56 -112.5 -92.5t-93.5 -58.5t-86 -30.5t-90 -8.5q-51 0 -93.5 8.5t-85.5 30.5 t-92 58.5t-113 92.5q-8 7 -13.5 17t-5.5 21q0 20 14 34t34 14q10 0 18 -4t16 -10q64 -56 107.5 -88t78 -48t65.5 -20t70 -4zM503 710q17 10 36 4.5t29 -22.5t5 -36t-22 -29l-148 -85q-17 -10 -36 -4.5t-29 22.5t-5 36t22 29z" />
<glyph unicode="&#xde;" horiz-adv-x="882" d="M146 328v-74h555q15 0 26.5 11t11.5 26t-11.5 26t-26.5 11h-555zM832 291q0 -28 -10.5 -52t-29 -42t-43 -28.5t-52.5 -10.5h-551v-37q0 -20 -14 -34t-34 -14t-34 14t-14 34v340q0 20 14 34t34 14t34 -14t14 -34v-37h551q28 0 52.5 -10.5t43 -28.5t29 -42t10.5 -52z" />
<glyph unicode="&#xdf;" horiz-adv-x="1761" d="M1028 243q-28 0 -52 10.5t-42 28.5t-28.5 42t-10.5 52t10.5 52t28.5 42t42 28.5t52 10.5h607q20 0 34 -14t14 -34t-14 -34t-34 -14h-609q-15 0 -26.5 -10.5t-11.5 -26.5q0 -15 11.5 -26t26.5 -11h553q28 0 52.5 -10.5t42.5 -28.5t28.5 -42.5t10.5 -52.5t-10.5 -52 t-28.5 -42t-42.5 -28t-52.5 -10h-606q-20 0 -34 14t-14 34t14 34t34 14h610q15 0 26 10.5t11 25.5q0 16 -11 27t-26 11h-555zM183 243q-28 0 -52 10.5t-42 28.5t-28.5 42t-10.5 52t10.5 52t28.5 42t42 28.5t52 10.5h607q20 0 34 -14t14 -34t-14 -34t-34 -14h-609 q-15 0 -26.5 -10.5t-11.5 -26.5q0 -15 11.5 -26t26.5 -11h553q28 0 52.5 -10.5t42.5 -28.5t28.5 -42.5t10.5 -52.5t-10.5 -52t-28.5 -42t-42.5 -28t-52.5 -10h-606q-20 0 -34 14t-14 34t14 34t34 14h610q15 0 26 10.5t11 25.5q0 16 -11 27t-26 11h-555z" />
<glyph unicode="&#xe0;" horiz-adv-x="816" d="M135 91q-14 -18 -37 -18q-20 0 -34 14t-14 34q0 19 10 29l243 327q17 23 45 37.5t60 14.5q30 0 57 -13t44 -36l243 -325q5 -8 9.5 -16t4.5 -18q0 -20 -14 -34t-34 -14q-25 0 -38 19l-233 311q-7 8 -17.5 17.5t-21.5 9.5t-21.5 -9.5t-16.5 -17.5zM508 625q17 -10 22 -29 t-5 -36t-29 -22.5t-36 4.5l-148 85q-17 10 -22 29t5 36t29 22.5t36 -4.5z" />
<glyph unicode="&#xe1;" horiz-adv-x="816" d="M135 91q-14 -18 -37 -18q-20 0 -34 14t-14 34q0 19 10 29l243 327q17 23 45 37.5t60 14.5q30 0 57 -13t44 -36l243 -325q5 -8 9.5 -16t4.5 -18q0 -20 -14 -34t-34 -14q-25 0 -38 19l-233 311q-7 8 -17.5 17.5t-21.5 9.5t-21.5 -9.5t-16.5 -17.5zM428 710q17 10 36 4.5 t29 -22.5t5 -36t-22 -29l-148 -85q-17 -10 -36 -4.5t-29 22.5t-5 36t22 29z" />
<glyph unicode="&#xe2;" horiz-adv-x="816" d="M135 91q-14 -18 -37 -18q-20 0 -34 14t-14 34q0 19 10 29l243 327q17 23 45 37.5t60 14.5q30 0 57 -13t44 -36l243 -325q5 -8 9.5 -16t4.5 -18q0 -20 -14 -34t-34 -14q-25 0 -38 19l-233 311q-7 8 -17.5 17.5t-21.5 9.5t-21.5 -9.5t-16.5 -17.5zM262 581q0 20 15 35 l95 96l3 2q12 14 34 14t34 -14l3 -2l95 -96q15 -15 15 -35t-14.5 -34.5t-34.5 -14.5q-10 0 -17.5 4t-15.5 11l-65 64l-65 -64q-8 -7 -15.5 -11t-17.5 -4q-20 0 -34.5 14.5t-14.5 34.5z" />
<glyph unicode="&#xe3;" horiz-adv-x="816" d="M135 91q-14 -18 -37 -18q-20 0 -34 14t-14 34q0 19 10 29l243 327q17 23 45 37.5t60 14.5q30 0 57 -13t44 -36l243 -325q5 -8 9.5 -16t4.5 -18q0 -20 -14 -34t-34 -14q-25 0 -38 19l-233 311q-7 8 -17.5 17.5t-21.5 9.5t-21.5 -9.5t-16.5 -17.5zM494 552q-55 0 -90 35 q-16 16 -24 28.5t-13.5 20.5t-11.5 12.5t-19 4.5q-16 0 -27.5 -9.5t-15.5 -23.5q-4 -16 -16.5 -26.5t-29.5 -10.5q-20 0 -34 14t-14 34q0 9 3 17q12 45 49 73t85 28q54 0 89 -36q16 -17 24 -29.5t14 -20.5t12.5 -11.5t18.5 -3.5q16 0 27.5 9.5t15.5 23.5q4 16 16.5 26.5 t29.5 10.5q20 0 34 -14t14 -34q0 -10 -3 -17q-12 -45 -49 -73t-85 -28z" />
<glyph unicode="&#xe4;" horiz-adv-x="816" d="M135 91q-14 -18 -37 -18q-20 0 -34 14t-14 34q0 19 10 29l243 327q17 23 45 37.5t60 14.5q30 0 57 -13t44 -36l243 -325q5 -8 9.5 -16t4.5 -18q0 -20 -14 -34t-34 -14q-25 0 -38 19l-233 311q-7 8 -17.5 17.5t-21.5 9.5t-21.5 -9.5t-16.5 -17.5zM469 611q0 26 18 44 t44 18t44 -18t18 -44t-18 -44t-44 -18t-44 18t-18 44zM224 611q0 26 18 44t44 18t44 -18t18 -44t-18 -44t-44 -18t-44 18t-18 44z" />
<glyph unicode="&#xe5;" horiz-adv-x="816" d="M361 645q0 -20 13.5 -33.5t33.5 -13.5q19 0 32.5 13.5t13.5 33.5q0 19 -13.5 32.5t-32.5 13.5q-20 0 -33.5 -13.5t-13.5 -32.5zM315 645q0 19 7.5 36t20 29.5t29.5 20t36 7.5t36 -7.5t29.5 -20t20 -29.5t7.5 -36t-7.5 -36t-20 -29.5t-29.5 -20t-36 -7.5t-36 7.5t-29.5 20 t-20 29.5t-7.5 36zM135 91q-14 -18 -37 -18q-20 0 -34 14t-14 34q0 19 10 29l243 327q17 23 45 37.5t60 14.5q30 0 57 -13t44 -36l243 -325q5 -8 9.5 -16t4.5 -18q0 -20 -14 -34t-34 -14q-25 0 -38 19l-233 311q-7 8 -17.5 17.5t-21.5 9.5t-21.5 -9.5t-16.5 -17.5z" />
<glyph unicode="&#xe6;" horiz-adv-x="1484" d="M98 73q-20 0 -34 14t-14 34q0 19 10 29l243 307q18 23 45.5 37.5t59.5 14.5h978q20 0 34 -14t14 -34t-14 -34t-34 -14h-978q-11 0 -20.5 -10t-16.5 -18l-236 -294q-15 -18 -37 -18zM533 291q0 20 14 34t34 14h783q20 0 34 -14t14 -34t-14 -34t-34 -14h-683l49 -61 q5 -5 11 -9t15 -4h630q20 0 34 -14t14 -34t-14 -34t-34 -14h-635q-25 0 -49 11t-41 32l-117 145q-11 14 -11 30z" />
<glyph unicode="&#xe7;" horiz-adv-x="915" d="M50 291q0 37 12.5 76t36.5 70.5t58 51.5t77 20h583q20 0 34 -14t14 -34t-14 -34t-34 -14h-562q-35 0 -56.5 -12.5t-34 -30.5t-17 -39.5t-4.5 -39.5t4.5 -39.5t17 -39.5t34 -30.5t56.5 -12.5h562q20 0 34 -14t14 -34t-14 -34t-34 -14h-297v-8q0 -23 -8.5 -47t-33.5 -47 q-8 -8 -17 -13t-20 -5q-20 0 -34 13.5t-14 33.5q0 23 16 36q2 2 6 9t6 28h-197q-41 0 -73 20t-54.5 51.5t-34.5 70t-12 76.5z" />
<glyph unicode="&#xe8;" horiz-adv-x="905" d="M50 461q0 20 14 34t34 14h709q20 0 34 -14t14 -34t-14 -34t-34 -14h-709q-20 0 -34 14t-14 34zM172 73q-22 0 -44 9.5t-39 26.5t-28 41t-11 54v90q0 27 15.5 36t48.5 9h671q20 0 34 -14t14 -34t-14 -34t-34 -14h-639v-49q0 -10 8.5 -17.5t22.5 -7.5h630q20 0 34 -14 t14 -34t-14 -34t-34 -14h-635zM540 625q17 -10 22 -29t-5 -36t-29 -22.5t-36 4.5l-148 85q-17 10 -22 29t5 36t29 22.5t36 -4.5z" />
<glyph unicode="&#xe9;" horiz-adv-x="905" d="M50 461q0 20 14 34t34 14h709q20 0 34 -14t14 -34t-14 -34t-34 -14h-709q-20 0 -34 14t-14 34zM172 73q-22 0 -44 9.5t-39 26.5t-28 41t-11 54v90q0 27 15.5 36t48.5 9h671q20 0 34 -14t14 -34t-14 -34t-34 -14h-639v-49q0 -10 8.5 -17.5t22.5 -7.5h630q20 0 34 -14 t14 -34t-14 -34t-34 -14h-635zM500 710q17 10 36 4.5t29 -22.5t5 -36t-22 -29l-148 -85q-17 -10 -36 -4.5t-29 22.5t-5 36t22 29z" />
<glyph unicode="&#xea;" horiz-adv-x="905" d="M50 461q0 20 14 34t34 14h709q20 0 34 -14t14 -34t-14 -34t-34 -14h-709q-20 0 -34 14t-14 34zM172 73q-22 0 -44 9.5t-39 26.5t-28 41t-11 54v90q0 27 15.5 36t48.5 9h671q20 0 34 -14t14 -34t-14 -34t-34 -14h-639v-49q0 -10 8.5 -17.5t22.5 -7.5h630q20 0 34 -14 t14 -34t-14 -34t-34 -14h-635zM296 581q0 20 15 35l95 96l3 2q12 14 34 14t34 -14l3 -2l95 -96q15 -15 15 -35t-14.5 -34.5t-34.5 -14.5q-10 0 -17.5 4t-15.5 11l-65 64l-65 -64q-8 -7 -15.5 -11t-17.5 -4q-20 0 -34.5 14.5t-14.5 34.5z" />
<glyph unicode="&#xeb;" horiz-adv-x="905" d="M50 461q0 20 14 34t34 14h709q20 0 34 -14t14 -34t-14 -34t-34 -14h-709q-20 0 -34 14t-14 34zM172 73q-22 0 -44 9.5t-39 26.5t-28 41t-11 54v90q0 27 15.5 36t48.5 9h671q20 0 34 -14t14 -34t-14 -34t-34 -14h-639v-49q0 -10 8.5 -17.5t22.5 -7.5h630q20 0 34 -14 t14 -34t-14 -34t-34 -14h-635zM488 611q0 26 18 44t44 18t44 -18t18 -44t-18 -44t-44 -18t-44 18t-18 44zM243 611q0 26 18 44t44 18t44 -18t18 -44t-18 -44t-44 -18t-44 18t-18 44z" />
<glyph unicode="&#xec;" horiz-adv-x="196" d="M146 121q0 -20 -14 -34t-34 -14t-34 14t-14 34v340q0 20 14 34t34 14t34 -14t14 -34v-340zM200 625q17 -10 22 -29t-5 -36t-29 -22.5t-36 4.5l-148 85q-17 10 -22 29t5 36t29 22.5t36 -4.5z" />
<glyph unicode="&#xed;" horiz-adv-x="196" d="M146 121q0 -20 -14 -34t-34 -14t-34 14t-14 34v340q0 20 14 34t34 14t34 -14t14 -34v-340zM150 710q17 10 36 4.5t29 -22.5t5 -36t-22 -29l-148 -85q-17 -10 -36 -4.5t-29 22.5t-5 36t22 29z" />
<glyph unicode="&#xee;" horiz-adv-x="196" d="M146 121q0 -20 -14 -34t-34 -14t-34 14t-14 34v340q0 20 14 34t34 14t34 -14t14 -34v-340zM-43 581q0 20 15 35l95 96l3 2q12 14 34 14t34 -14l3 -2l95 -96q15 -15 15 -35t-14.5 -34.5t-34.5 -14.5q-10 0 -17.5 4t-15.5 11l-65 64l-65 -64q-8 -7 -15.5 -11t-17.5 -4 q-20 0 -34.5 14.5t-14.5 34.5z" />
<glyph unicode="&#xef;" horiz-adv-x="196" d="M146 121q0 -20 -14 -34t-34 -14t-34 14t-14 34v340q0 20 14 34t34 14t34 -14t14 -34v-340zM165 611q0 26 18 44t44 18t44 -18t18 -44t-18 -44t-44 -18t-44 18t-18 44zM-80 611q0 26 18 44t44 18t44 -18t18 -44t-18 -44t-44 -18t-44 18t-18 44z" />
<glyph unicode="&#xf0;" horiz-adv-x="915" d="M146 281v-112h514q34 0 56 12.5t34.5 30.5t17 39.5t4.5 39.5t-4.5 39.5t-17 39.5t-34.5 30.5t-56 12.5h-562q-20 0 -34 14t-14 34t14 34t34 14h583q43 0 77 -20t58 -51.5t36.5 -70.5t12.5 -76t-12 -76t-34.5 -70.5t-55 -51.5t-72.5 -20h-593q-20 0 -34 14t-14 34v160h-52 q-12 0 -20.5 8.5t-8.5 20.5t8.5 20.5t20.5 8.5h433q12 0 20.5 -8.5t8.5 -20.5t-8.5 -20.5t-20.5 -8.5h-285z" />
<glyph unicode="&#xf1;" horiz-adv-x="877" d="M731 461q0 20 14 34t34 14t34 -14t14 -34v-291q0 -42 -27 -69.5t-69 -27.5q-14 0 -27.5 4t-24.5 11l-458 280q-19 11 -31.5 17.5t-20.5 6.5q-15 0 -19 -19t-4 -55v-197q0 -20 -14 -34t-34 -14t-34 14t-14 34v291q0 42 27 69.5t69 27.5q14 0 27.5 -4t24.5 -11l458 -280 q19 -11 31.5 -17.5t20.5 -6.5q15 0 19 19t4 55v197zM512 552q-55 0 -90 35q-16 16 -24 28.5t-13.5 20.5t-11.5 12.5t-19 4.5q-16 0 -27.5 -9.5t-15.5 -23.5q-4 -16 -16.5 -26.5t-29.5 -10.5q-20 0 -34 14t-14 34q0 9 3 17q12 45 49 73t85 28q54 0 89 -36q16 -17 24 -29.5 t14 -20.5t12.5 -11.5t18.5 -3.5q16 0 27.5 9.5t15.5 23.5q4 16 16.5 26.5t29.5 10.5q20 0 34 -14t14 -34q0 -10 -3 -17q-12 -45 -49 -73t-85 -28z" />
<glyph unicode="&#xf2;" d="M659 169q34 0 56 12.5t34.5 30.5t17 39.5t4.5 39.5t-4.5 39.5t-17 39.5t-34.5 30.5t-56 12.5h-404q-35 0 -56.5 -12.5t-34 -30.5t-17 -39.5t-4.5 -39.5t4.5 -39.5t17 -39.5t34 -30.5t56.5 -12.5h404zM864 291q0 -38 -12.5 -76.5t-36.5 -70t-58 -51.5t-77 -20h-456 q-41 0 -73 20t-54.5 51.5t-34.5 70.5t-12 76t12.5 76t36.5 70.5t58 51.5t77 20h456q40 0 72.5 -20t55 -51.5t34.5 -70.5t12 -76zM551 625q17 -10 22 -29t-5 -36t-29 -22.5t-36 4.5l-148 85q-17 10 -22 29t5 36t29 22.5t36 -4.5z" />
<glyph unicode="&#xf3;" d="M659 169q34 0 56 12.5t34.5 30.5t17 39.5t4.5 39.5t-4.5 39.5t-17 39.5t-34.5 30.5t-56 12.5h-404q-35 0 -56.5 -12.5t-34 -30.5t-17 -39.5t-4.5 -39.5t4.5 -39.5t17 -39.5t34 -30.5t56.5 -12.5h404zM864 291q0 -38 -12.5 -76.5t-36.5 -70t-58 -51.5t-77 -20h-456 q-41 0 -73 20t-54.5 51.5t-34.5 70.5t-12 76t12.5 76t36.5 70.5t58 51.5t77 20h456q40 0 72.5 -20t55 -51.5t34.5 -70.5t12 -76zM503 710q17 10 36 4.5t29 -22.5t5 -36t-22 -29l-148 -85q-17 -10 -36 -4.5t-29 22.5t-5 36t22 29z" />
<glyph unicode="&#xf4;" d="M659 169q34 0 56 12.5t34.5 30.5t17 39.5t4.5 39.5t-4.5 39.5t-17 39.5t-34.5 30.5t-56 12.5h-404q-35 0 -56.5 -12.5t-34 -30.5t-17 -39.5t-4.5 -39.5t4.5 -39.5t17 -39.5t34 -30.5t56.5 -12.5h404zM864 291q0 -38 -12.5 -76.5t-36.5 -70t-58 -51.5t-77 -20h-456 q-41 0 -73 20t-54.5 51.5t-34.5 70.5t-12 76t12.5 76t36.5 70.5t58 51.5t77 20h456q40 0 72.5 -20t55 -51.5t34.5 -70.5t12 -76zM323 581q0 20 15 35l95 96l3 2q12 14 34 14t34 -14l3 -2l95 -96q15 -15 15 -35t-14.5 -34.5t-34.5 -14.5q-10 0 -17.5 4t-15.5 11l-65 64 l-65 -64q-8 -7 -15.5 -11t-17.5 -4q-20 0 -34.5 14.5t-14.5 34.5z" />
<glyph unicode="&#xf5;" d="M659 169q34 0 56 12.5t34.5 30.5t17 39.5t4.5 39.5t-4.5 39.5t-17 39.5t-34.5 30.5t-56 12.5h-404q-35 0 -56.5 -12.5t-34 -30.5t-17 -39.5t-4.5 -39.5t4.5 -39.5t17 -39.5t34 -30.5t56.5 -12.5h404zM864 291q0 -38 -12.5 -76.5t-36.5 -70t-58 -51.5t-77 -20h-456 q-41 0 -73 20t-54.5 51.5t-34.5 70.5t-12 76t12.5 76t36.5 70.5t58 51.5t77 20h456q40 0 72.5 -20t55 -51.5t34.5 -70.5t12 -76zM538 552q-55 0 -90 35q-16 16 -24 28.5t-13.5 20.5t-11.5 12.5t-19 4.5q-16 0 -27.5 -9.5t-15.5 -23.5q-4 -16 -16.5 -26.5t-29.5 -10.5 q-20 0 -34 14t-14 34q0 9 3 17q12 45 49 73t85 28q54 0 89 -36q16 -17 24 -29.5t14 -20.5t12.5 -11.5t18.5 -3.5q16 0 27.5 9.5t15.5 23.5q4 16 16.5 26.5t29.5 10.5q20 0 34 -14t14 -34q0 -10 -3 -17q-12 -45 -49 -73t-85 -28z" />
<glyph unicode="&#xf6;" d="M659 169q34 0 56 12.5t34.5 30.5t17 39.5t4.5 39.5t-4.5 39.5t-17 39.5t-34.5 30.5t-56 12.5h-404q-35 0 -56.5 -12.5t-34 -30.5t-17 -39.5t-4.5 -39.5t4.5 -39.5t17 -39.5t34 -30.5t56.5 -12.5h404zM864 291q0 -38 -12.5 -76.5t-36.5 -70t-58 -51.5t-77 -20h-456 q-41 0 -73 20t-54.5 51.5t-34.5 70.5t-12 76t12.5 76t36.5 70.5t58 51.5t77 20h456q40 0 72.5 -20t55 -51.5t34.5 -70.5t12 -76zM510 611q0 26 18 44t44 18t44 -18t18 -44t-18 -44t-44 -18t-44 18t-18 44zM265 611q0 26 18 44t44 18t44 -18t18 -44t-18 -44t-44 -18t-44 18 t-18 44z" />
<glyph unicode="&#xf8;" d="M143 291q0 -10 1 -20t4 -21l564 152q-24 11 -53 11h-404q-35 0 -56.5 -12.5t-34 -30.5t-17 -39.5t-4.5 -39.5zM176 197q13 -13 32 -20.5t47 -7.5h404q34 0 56 12.5t34.5 30.5t17 39.5t4.5 39.5q0 14 -3 30.5t-10 32.5zM864 291q0 -38 -12.5 -76.5t-36.5 -70t-58 -51.5 t-77 -20h-456q-41 0 -73 20t-54.5 51.5t-34.5 70.5t-12 76t12.5 76t36.5 70.5t58 51.5t77 20h456q40 0 72.5 -20t55 -51.5t34.5 -70.5t12 -76z" />
<glyph unicode="&#xf9;" d="M146 291q0 -18 4.5 -39.5t17 -39.5t34 -30.5t56.5 -12.5h398q34 0 56 12.5t34.5 30.5t17 39.5t4.5 39.5v169q0 20 14 34t34 14t34 -14t14 -34v-169q0 -38 -12.5 -76.5t-36.5 -70t-58 -51.5t-77 -20h-456q-41 0 -73 20t-54.5 51.5t-34.5 70.5t-12 76v169q0 20 14 34t34 14 t34 -14t14 -34v-169zM561 625q17 -10 22 -29t-5 -36t-29 -22.5t-36 4.5l-148 85q-17 10 -22 29t5 36t29 22.5t36 -4.5z" />
<glyph unicode="&#xfa;" d="M146 291q0 -18 4.5 -39.5t17 -39.5t34 -30.5t56.5 -12.5h398q34 0 56 12.5t34.5 30.5t17 39.5t4.5 39.5v169q0 20 14 34t34 14t34 -14t14 -34v-169q0 -38 -12.5 -76.5t-36.5 -70t-58 -51.5t-77 -20h-456q-41 0 -73 20t-54.5 51.5t-34.5 70.5t-12 76v169q0 20 14 34t34 14 t34 -14t14 -34v-169zM503 710q17 10 36 4.5t29 -22.5t5 -36t-22 -29l-148 -85q-17 -10 -36 -4.5t-29 22.5t-5 36t22 29z" />
<glyph unicode="&#xfb;" d="M146 291q0 -18 4.5 -39.5t17 -39.5t34 -30.5t56.5 -12.5h398q34 0 56 12.5t34.5 30.5t17 39.5t4.5 39.5v169q0 20 14 34t34 14t34 -14t14 -34v-169q0 -38 -12.5 -76.5t-36.5 -70t-58 -51.5t-77 -20h-456q-41 0 -73 20t-54.5 51.5t-34.5 70.5t-12 76v169q0 20 14 34t34 14 t34 -14t14 -34v-169zM301 581q0 20 15 35l95 96l3 2q12 14 34 14t34 -14l3 -2l95 -96q15 -15 15 -35t-14.5 -34.5t-34.5 -14.5q-10 0 -17.5 4t-15.5 11l-65 64l-65 -64q-8 -7 -15.5 -11t-17.5 -4q-20 0 -34.5 14.5t-14.5 34.5z" />
<glyph unicode="&#xfc;" d="M146 291q0 -18 4.5 -39.5t17 -39.5t34 -30.5t56.5 -12.5h398q34 0 56 12.5t34.5 30.5t17 39.5t4.5 39.5v169q0 20 14 34t34 14t34 -14t14 -34v-169q0 -38 -12.5 -76.5t-36.5 -70t-58 -51.5t-77 -20h-456q-41 0 -73 20t-54.5 51.5t-34.5 70.5t-12 76v169q0 20 14 34t34 14 t34 -14t14 -34v-169zM516 611q0 26 18 44t44 18t44 -18t18 -44t-18 -44t-44 -18t-44 18t-18 44zM271 611q0 26 18 44t44 18t44 -18t18 -44t-18 -44t-44 -18t-44 18t-18 44z" />
<glyph unicode="&#xfd;" horiz-adv-x="904" d="M500 121q0 -20 -14 -34t-34 -14t-34 14t-14 34v122q-38 0 -74 10t-75.5 31.5t-85 55.5t-100.5 83q-8 7 -13.5 17t-5.5 21q0 20 14 34t34 14q10 0 18 -4t16 -10q64 -56 107.5 -87.5t78 -46.5t65.5 -18.5t70 -3.5t69 3t64 18t77.5 46.5t108.5 88.5q17 14 34 14q20 0 34 -14 t14 -34q0 -11 -5.5 -21t-13.5 -17q-55 -48 -101 -82t-86.5 -56t-76.5 -32t-71 -10v-122zM503 710q17 10 36 4.5t29 -22.5t5 -36t-22 -29l-148 -85q-17 -10 -36 -4.5t-29 22.5t-5 36t22 29z" />
<glyph unicode="&#xfe;" horiz-adv-x="882" d="M832 291q0 -28 -10.5 -52t-29 -42t-43 -28.5t-52.5 -10.5h-551v-37q0 -20 -14 -34t-34 -14t-34 14t-14 34v85q0 20 14 34t34 14h603q15 0 26.5 11t11.5 26t-11.5 26t-26.5 11h-603q-20 0 -34 14t-14 34v85q0 20 14 34t34 14t34 -14t14 -34v-37h551q28 0 52.5 -10.5 t43 -28.5t29 -42t10.5 -52z" />
<glyph unicode="&#xff;" horiz-adv-x="904" d="M500 121q0 -20 -14 -34t-34 -14t-34 14t-14 34v122q-38 0 -74 10t-75.5 31.5t-85 55.5t-100.5 83q-8 7 -13.5 17t-5.5 21q0 20 14 34t34 14q10 0 18 -4t16 -10q64 -56 107.5 -87.5t78 -46.5t65.5 -18.5t70 -3.5t69 3t64 18t77.5 46.5t108.5 88.5q17 14 34 14q20 0 34 -14 t14 -34q0 -11 -5.5 -21t-13.5 -17q-55 -48 -101 -82t-86.5 -56t-76.5 -32t-71 -10v-122zM515 611q0 26 18 44t44 18t44 -18t18 -44t-18 -44t-44 -18t-44 18t-18 44zM270 611q0 26 18 44t44 18t44 -18t18 -44t-18 -44t-44 -18t-44 18t-18 44z" />
<glyph unicode="&#x152;" horiz-adv-x="1626" d="M1486 339q20 0 34 -14t14 -34t-14 -34t-34 -14h-498q-20 0 -34 14t-14 34t14 34t34 14h498zM1528 509q20 0 34 -14t14 -34t-14 -34t-34 -14h-573q-20 0 -34 14t-14 34t14 34t34 14h573zM224 73q-41 0 -73 20t-54.5 51.5t-34.5 70.5t-12 76t12.5 76t36.5 70.5t58 51.5 t77 20h456q41 0 73.5 -20t55 -51.5t34.5 -70.5t12 -76q0 -18 4.5 -39.5t17 -39.5t34 -30.5t56.5 -12.5h551q20 0 34 -14t14 -34t-14 -34t-34 -14h-583q-41 0 -73 20t-54.5 51.5t-34.5 70.5t-12 76q0 18 -4.5 39.5t-17 39.5t-34.5 30.5t-56 12.5h-404q-35 0 -56.5 -12.5 t-34 -30.5t-17 -39.5t-4.5 -39.5t4.5 -39.5t17 -39.5t34 -30.5t56.5 -12.5h425q20 0 34 -14t14 -34t-14 -34t-34 -14h-456z" />
<glyph unicode="&#x153;" horiz-adv-x="1626" d="M893 73q-26 0 -51.5 13t-43.5 37q-21 -22 -48.5 -36t-59.5 -14h-456q-43 0 -77 20t-58 51.5t-36.5 70t-12.5 76.5q0 37 12 76t34.5 70.5t54.5 51.5t73 20h1304q20 0 34 -14t14 -34t-14 -34t-34 -14h-1273q-35 0 -56.5 -12.5t-34 -30.5t-17 -39.5t-4.5 -39.5t4.5 -39.5 t17 -39.5t34 -30.5t56.5 -12.5h404q33 0 54.5 11t34.5 28t18 37t5 38v11q0 27 15.5 36t48.5 9h671q20 0 34 -14t14 -34t-14 -34t-34 -14h-639v-49q0 -10 8.5 -17.5t22.5 -7.5h630q20 0 34 -14t14 -34t-14 -34t-34 -14h-635z" />
<glyph unicode="&#x160;" horiz-adv-x="918" d="M598 679q0 -20 -15 -35l-95 -96l-3 -2q-12 -14 -34 -14t-34 14l-3 2l-95 96q-15 15 -15 35t14.5 34.5t34.5 14.5q10 0 17.5 -4t15.5 -11l65 -64l65 64q8 7 15.5 11t17.5 4q20 0 34.5 -14.5t14.5 -34.5zM183 243q-28 0 -52 10.5t-42 28.5t-28.5 42t-10.5 52t10.5 52 t28.5 42t42 28.5t52 10.5h607q20 0 34 -14t14 -34t-14 -34t-34 -14h-609q-15 0 -26.5 -10.5t-11.5 -26.5q0 -15 11.5 -26t26.5 -11h553q28 0 52.5 -10.5t42.5 -28.5t28.5 -42.5t10.5 -52.5t-10.5 -52t-28.5 -42t-42.5 -28t-52.5 -10h-606q-20 0 -34 14t-14 34t14 34t34 14 h610q15 0 26 10.5t11 25.5q0 16 -11 27t-26 11h-555z" />
<glyph unicode="&#x161;" horiz-adv-x="918" d="M598 679q0 -20 -15 -35l-95 -96l-3 -2q-12 -14 -34 -14t-34 14l-3 2l-95 96q-15 15 -15 35t14.5 34.5t34.5 14.5q10 0 17.5 -4t15.5 -11l65 -64l65 64q8 7 15.5 11t17.5 4q20 0 34.5 -14.5t14.5 -34.5zM183 243q-28 0 -52 10.5t-42 28.5t-28.5 42t-10.5 52t10.5 52 t28.5 42t42 28.5t52 10.5h607q20 0 34 -14t14 -34t-14 -34t-34 -14h-609q-15 0 -26.5 -10.5t-11.5 -26.5q0 -15 11.5 -26t26.5 -11h553q28 0 52.5 -10.5t42.5 -28.5t28.5 -42.5t10.5 -52.5t-10.5 -52t-28.5 -42t-42.5 -28t-52.5 -10h-606q-20 0 -34 14t-14 34t14 34t34 14 h610q15 0 26 10.5t11 25.5q0 16 -11 27t-26 11h-555z" />
<glyph unicode="&#x178;" horiz-adv-x="904" d="M391 121q0 26 18 44t44 18t44 -18t18 -44t-18 -44t-44 -18t-44 18t-18 44zM453 335q39 0 69 3.5t64 19.5t77.5 48t108.5 89q17 14 34 14q20 0 34 -14t14 -34q0 -11 -5.5 -21t-13.5 -17q-63 -56 -112.5 -92.5t-93.5 -58.5t-86 -30.5t-90 -8.5q-51 0 -93.5 8.5t-85.5 30.5 t-92 58.5t-113 92.5q-8 7 -13.5 17t-5.5 21q0 20 14 34t34 14q10 0 18 -4t16 -10q64 -56 107.5 -88t78 -48t65.5 -20t70 -4zM513 611q0 26 18 44t44 18t44 -18t18 -44t-18 -44t-44 -18t-44 18t-18 44zM268 611q0 26 18 44t44 18t44 -18t18 -44t-18 -44t-44 -18t-44 18 t-18 44z" />
<glyph unicode="&#x2c6;" horiz-adv-x="440" d="M73 581q0 20 15 35l95 96l3 2q12 14 34 14t34 -14l3 -2l95 -96q15 -15 15 -35t-14.5 -34.5t-34.5 -14.5q-10 0 -17.5 4t-15.5 11l-65 64l-65 -64q-8 -7 -15.5 -11t-17.5 -4q-20 0 -34.5 14.5t-14.5 34.5z" />
<glyph unicode="&#x2dc;" horiz-adv-x="500" d="M324 552q-55 0 -90 35q-16 16 -24 28.5t-13.5 20.5t-11.5 12.5t-19 4.5q-16 0 -27.5 -9.5t-15.5 -23.5q-4 -16 -16.5 -26.5t-29.5 -10.5q-20 0 -34 14t-14 34q0 9 3 17q12 45 49 73t85 28q54 0 89 -36q16 -17 24 -29.5t14 -20.5t12.5 -11.5t18.5 -3.5q16 0 27.5 9.5 t15.5 23.5q4 16 16.5 26.5t29.5 10.5q20 0 34 -14t14 -34q0 -10 -3 -17q-12 -45 -49 -73t-85 -28z" />
<glyph unicode="&#x37e;" horiz-adv-x="224" d="M161 65q0 -23 -8.5 -47t-33.5 -47q-8 -8 -17 -13t-20 -5q-20 0 -34 13.5t-14 33.5q0 23 16 36q1 1 4 5t5 13t4 25t2 42q0 20 14 34t34 14t34 -14t14 -34v-56zM50 401q0 26 18 44t44 18t44 -18t18 -44t-18 -44t-44 -18t-44 18t-18 44z" />
<glyph unicode="&#x401;" horiz-adv-x="905" d="M765 339q20 0 34 -14t14 -34t-14 -34t-34 -14h-498q-20 0 -34 14t-14 34t14 34t34 14h498zM256 413q-35 0 -56.5 -12.5t-34 -30.5t-17 -39.5t-4.5 -39.5t4.5 -39.5t17 -39.5t34 -30.5t56.5 -12.5h551q20 0 34 -14t14 -34t-14 -34t-34 -14h-583q-41 0 -73 20t-54.5 51.5 t-34.5 70t-12 76.5q0 37 12.5 76t36.5 70.5t58 51.5t77 20h573q20 0 34 -14t14 -34t-14 -34t-34 -14h-551zM526 611q0 26 18 44t44 18t44 -18t18 -44t-18 -44t-44 -18t-44 18t-18 44zM281 611q0 26 18 44t44 18t44 -18t18 -44t-18 -44t-44 -18t-44 18t-18 44z" />
<glyph unicode="&#x40e;" horiz-adv-x="904" d="M598 679q0 -20 -15 -35l-95 -96l-3 -2q-12 -14 -34 -14t-34 14l-3 2l-95 96q-15 15 -15 35t14.5 34.5t34.5 14.5q10 0 17.5 -4t15.5 -11l65 -64l65 64q8 7 15.5 11t17.5 4q20 0 34.5 -14.5t14.5 -34.5zM391 121q0 26 18 44t44 18t44 -18t18 -44t-18 -44t-44 -18t-44 18 t-18 44zM453 335q39 0 69 3.5t64 19.5t77.5 48t108.5 89q17 14 34 14q20 0 34 -14t14 -34q0 -11 -5.5 -21t-13.5 -17q-63 -56 -112.5 -92.5t-93.5 -58.5t-86 -30.5t-90 -8.5q-51 0 -93.5 8.5t-85.5 30.5t-92 58.5t-113 92.5q-8 7 -13.5 17t-5.5 21q0 20 14 34t34 14 q10 0 18 -4t16 -10q64 -56 107.5 -88t78 -48t65.5 -20t70 -4z" />
<glyph unicode="&#x410;" horiz-adv-x="816" d="M346 181q0 26 18 44t44 18t44 -18t18 -44t-18 -44t-44 -18t-44 18t-18 44zM135 91q-14 -18 -37 -18q-20 0 -34 14t-14 34q0 19 10 29l243 327q17 23 45 37.5t60 14.5q30 0 57 -13t44 -36l243 -325q5 -8 9.5 -16t4.5 -18q0 -20 -14 -34t-34 -14q-25 0 -38 19l-233 311 q-7 8 -17.5 17.5t-21.5 9.5t-21.5 -9.5t-16.5 -17.5z" />
<glyph unicode="&#x411;" horiz-adv-x="849" d="M799 206q0 -28 -10 -52t-28 -42t-41.5 -28.5t-50.5 -10.5h-573q-20 0 -33 14t-13 34v340q0 20 13 34t33 14h574q19 0 32.5 -14t13.5 -34t-13.5 -34t-32.5 -14h-528v-75h532q31 0 54.5 -16t40.5 -33q14 -17 22 -38.5t8 -44.5v0zM142 242v-73h531q14 0 25.5 11t11.5 26 t-11.5 25.5t-25.5 10.5h-531v0z" />
<glyph unicode="&#x412;" horiz-adv-x="882" d="M146 169h555q15 0 26.5 11t11.5 26q0 16 -11.5 26.5t-26.5 10.5h-555v-74zM146 413v-74h556q15 0 26 10t11 26q0 15 -11.5 26.5t-26.5 11.5h-555zM98 73q-20 0 -34 14t-14 34v340q0 20 14 34t34 14h599q28 0 52.5 -10.5t43 -28.5t29 -42.5t10.5 -52.5q0 -25 -8.5 -46.5 t-22.5 -38.5q14 -17 22.5 -38.5t8.5 -45.5q0 -28 -10.5 -52t-29 -42t-43 -28.5t-52.5 -10.5h-599z" />
<glyph unicode="&#x413;" horiz-adv-x="905" d="M51 291q0 37 12.5 76t36.5 70.5t58 51.5t77 20h573q20 0 34 -14t14 -34t-14 -34t-34 -14h-552q-33 0 -54.5 -11t-33.5 -28.5t-16.5 -37.5t-4.5 -38v-177q0 -20 -14 -34t-34 -14t-34 14t-14 34v170z" />
<glyph unicode="&#x414;" horiz-adv-x="816" d="M718 169q20 0 34 -14t14 -34t-14 -34t-34 -14h-624q-18 2 -31 15.5t-13 32.5q0 20 14 34t34 14h620zM255 211q-6 -10 -16 -14t-21 -4q-20 0 -34 14t-14 34q0 19 10 29l123 207q15 25 44 38.5t61 13.5q30 0 58 -12t43 -37l123 -205q5 -8 9.5 -16t4.5 -18q0 -20 -14 -34 t-34 -14q-12 0 -22 4t-16 15l-113 191q-5 9 -16.5 18t-22.5 9t-22 -9t-16 -18z" />
<glyph unicode="&#x415;" horiz-adv-x="905" d="M765 339q20 0 34 -14t14 -34t-14 -34t-34 -14h-498q-20 0 -34 14t-14 34t14 34t34 14h498zM256 413q-35 0 -56.5 -12.5t-34 -30.5t-17 -39.5t-4.5 -39.5t4.5 -39.5t17 -39.5t34 -30.5t56.5 -12.5h551q20 0 34 -14t14 -34t-14 -34t-34 -14h-583q-41 0 -73 20t-54.5 51.5 t-34.5 70t-12 76.5q0 37 12.5 76t36.5 70.5t58 51.5t77 20h573q20 0 34 -14t14 -34t-14 -34t-34 -14h-551z" />
<glyph unicode="&#x416;" horiz-adv-x="1029" d="M467 339h-41q-52 0 -90 13.5t-70 35.5t-63.5 50t-70.5 57q-9 6 -17.5 10t-16.5 4q-20 0 -34 -14t-14 -34q0 -14 8 -24.5t19 -18.5q26 -20 50 -37t48 -32.5t49.5 -29.5t54.5 -28q-29 -14 -54.5 -28t-49.5 -29.5t-48 -32.5t-50 -37q-11 -8 -19 -18.5t-8 -24.5q0 -20 14 -34 t34 -14q8 0 16.5 4t17.5 10q40 30 71.5 58.5t63.5 50t69 34.5t90 13h41v96zM467 339v122q0 20 14 34t33 14q20 0 34 -14t14 -34v-122h41q52 0 89.5 13.5t70 35.5t63.5 50t71 57q8 6 17 10t17 4q20 0 34 -14t14 -34q0 -14 -8 -24.5t-19 -18.5q-27 -20 -50.5 -37t-47.5 -32.5 t-49.5 -29.5t-54.5 -28q29 -14 54.5 -28t49.5 -29.5t47.5 -32.5t50.5 -37q11 -8 19 -18.5t8 -24.5q0 -20 -14 -34t-34 -14q-8 0 -17 4t-17 10q-41 30 -72.5 58.5t-63 50t-69 34.5t-89.5 13h-41v-122q0 -20 -14 -34t-33 -14q-20 0 -34 14t-14 34v122v96z" />
<glyph unicode="&#x417;" horiz-adv-x="888" d="M164 291q0 20 14 34t34 14h497q15 0 26 11t11 27q0 15 -11 25.5t-26 10.5h-611q-20 0 -34 14t-14 34t14 34t34 14h606q28 0 52.5 -10t42.5 -28t28.5 -42t10.5 -52q0 -25 -8.5 -47t-23.5 -39q32 -38 32 -86q0 -28 -10.5 -52t-28.5 -42t-42.5 -28t-52.5 -10h-606 q-20 0 -34 14t-14 34t14 34t34 14h611q15 0 26 10.5t11 25.5q0 16 -11 27t-26 11h-497q-20 0 -34 14t-14 34z" />
<glyph unicode="&#x418;" horiz-adv-x="877" d="M146 264q0 -36 4 -55t19 -19q8 0 20.5 6.5t31.5 17.5l458 280q11 7 24.5 11t27.5 4q42 0 69 -27.5t27 -69.5v-291q0 -20 -14 -34t-34 -14t-34 14t-14 34v197q0 36 -4 55t-19 19q-8 0 -20.5 -6.5t-31.5 -17.5l-458 -280q-11 -7 -24.5 -11t-27.5 -4q-42 0 -69 27.5 t-27 69.5v291q0 20 14 34t34 14t34 -14t14 -34v-197z" />
<glyph unicode="&#x419;" horiz-adv-x="877" d="M598 679q0 -20 -15 -35l-95 -96l-3 -2q-12 -14 -34 -14t-34 14l-3 2l-95 96q-15 15 -15 35t14.5 34.5t34.5 14.5q10 0 17.5 -4t15.5 -11l65 -64l65 64q8 7 15.5 11t17.5 4q20 0 34.5 -14.5t14.5 -34.5zM146 461q0 20 -14 34t-34 14t-34 -14t-14 -34v-291q0 -42 27 -69.5 t69 -27.5q14 0 27.5 4t24.5 11l458 280q19 11 31.5 17.5t20.5 6.5q15 0 19 -19t4 -55v-197q0 -20 14 -34t34 -14t34 14t14 34v291q0 42 -27 69.5t-69 27.5q-14 0 -27.5 -4t-24.5 -11l-458 -280q-19 -11 -31.5 -17.5t-20.5 -6.5q-15 0 -19 19t-4 55v197z" />
<glyph unicode="&#x41a;" horiz-adv-x="882" d="M145 339h231q52 0 102 13.5t97.5 35.5t91 50t83.5 57q8 6 17 10t17 4q20 0 34 -14t14 -34q0 -14 -8 -24.5t-19 -18.5q-26 -20 -50 -37t-48 -32.5t-49.5 -29.5t-54.5 -28q29 -14 54.5 -28t49.5 -29.5t48 -32.5t50 -37q11 -8 19 -18.5t8 -24.5q0 -20 -14 -34t-34 -14 q-8 0 -17 4t-17 10q-41 30 -85 58.5t-90.5 50t-96.5 34.5t-102 13h-231v-122q0 -20 -14 -34t-33 -14q-20 0 -34 14t-14 34v340q0 20 14 34t33 14q20 0 34 -14t14 -34v-122z" />
<glyph unicode="&#x41b;" horiz-adv-x="816" d="M446 383q-6 8 -16.5 17.5t-21.5 9.5t-21.5 -9.5t-17.5 -17.5l-233 -311q-13 -19 -38 -19q-20 0 -34 14t-14 34q0 10 4.5 18t9.5 16l243 325q17 23 44 36t57 13q32 0 60 -14.5t45 -37.5l242 -326l1 -1q10 -10 10 -29q0 -20 -14 -34t-34 -14q-24 0 -37 18z" />
<glyph unicode="&#x41c;" horiz-adv-x="944" d="M411 121q0 26 18 44t44 18t44 -18t18 -44t-18 -44t-44 -18t-44 18t-18 44zM146 121q0 -20 -14 -34t-34 -14t-34 14t-14 34v340q0 20 14 34t34 14q10 0 18 -4t16 -10q64 -56 110.5 -88t84.5 -48t72.5 -20t73.5 -4t72.5 3.5t71 19.5t84 48t111.5 89q17 14 34 14 q20 0 34 -14t14 -34v-340q0 -20 -14 -34t-34 -14t-34 14t-14 34v237q-45 -36 -86.5 -60t-81 -38.5t-78.5 -20.5t-79 -6q-43 0 -82.5 6t-79 20.5t-80 38.5t-85.5 60v-237z" />
<glyph unicode="&#x41d;" horiz-adv-x="883" d="M832 121q0 -20 -14 -34t-34 -14t-34 14t-14 34v23q0 30 -12.5 49.5t-31 30.5t-40 15t-38.5 4h-170h-3h-4h-170q-31 0 -62.5 8t-59.5 24v-154q0 -20 -14 -34t-34 -14t-34 14t-14 34v340q0 20 14 34t34 14t34 -14t14 -34v-17q0 -32 12.5 -52.5t31 -32t39.5 -16t39 -4.5h173 h1h3h170q31 0 62.5 -8t59.5 -24v154q0 20 14 34t34 14t34 -14t14 -34v-340z" />
<glyph unicode="&#x41e;" d="M659 169q34 0 56 12.5t34.5 30.5t17 39.5t4.5 39.5t-4.5 39.5t-17 39.5t-34.5 30.5t-56 12.5h-404q-35 0 -56.5 -12.5t-34 -30.5t-17 -39.5t-4.5 -39.5t4.5 -39.5t17 -39.5t34 -30.5t56.5 -12.5h404zM864 291q0 -38 -12.5 -76.5t-36.5 -70t-58 -51.5t-77 -20h-456 q-41 0 -73 20t-54.5 51.5t-34.5 70.5t-12 76t12.5 76t36.5 70.5t58 51.5t77 20h456q40 0 72.5 -20t55 -51.5t34.5 -70.5t12 -76z" />
<glyph unicode="&#x41f;" horiz-adv-x="877" d="M731 291q0 18 -4.5 39.5t-17 39.5t-34.5 30.5t-56 12.5h-361q-35 0 -56.5 -12.5t-34 -30.5t-17 -39.5t-4.5 -39.5v-170q0 -20 -14 -34t-34 -14t-34 14t-14 34v170q0 37 12.5 76t36.5 70.5t58 51.5t77 20h419q40 0 72.5 -20t55 -51.5t34.5 -70.5t12 -76v-170 q0 -20 -14 -34t-34 -14t-34 14t-14 34v170z" />
<glyph unicode="&#x420;" horiz-adv-x="882" d="M146 413v-74h555q15 0 26.5 10.5t11.5 26.5q0 15 -11.5 26t-26.5 11h-555zM697 509q28 0 52.5 -10.5t43 -28.5t29 -42t10.5 -52t-10.5 -52t-29 -42t-43 -28.5t-52.5 -10.5h-551v-122q0 -20 -14.5 -34t-33.5 -14q-20 0 -34 14t-14 34v340q0 20 14 34t34 14h599z" />
<glyph unicode="&#x421;" horiz-adv-x="915" d="M50 291q0 37 12.5 76t36.5 70.5t58 51.5t77 20h583q20 0 34 -14t14 -34t-14 -34t-34 -14h-562q-35 0 -56.5 -12.5t-34 -30.5t-17 -39.5t-4.5 -39.5t4.5 -39.5t17 -39.5t34 -30.5t56.5 -12.5h562q20 0 34 -14t14 -34t-14 -34t-34 -14h-593q-41 0 -73 20t-54.5 51.5 t-34.5 70t-12 76.5z" />
<glyph unicode="&#x422;" horiz-adv-x="884" d="M786 509q20 0 34 -14t14 -34q0 -19 -13 -32.5t-31 -15.5h-201q-30 0 -49.5 -12.5t-30.5 -31t-15 -39.5t-4 -39v-170q0 -20 -14 -34t-34 -14t-34 14t-14 34v170q0 31 8 62.5t24 59.5h-328q-20 0 -34 14t-14 34t14 34t34 14h688z" />
<glyph unicode="&#x423;" horiz-adv-x="904" d="M391 121q0 26 18 44t44 18t44 -18t18 -44t-18 -44t-44 -18t-44 18t-18 44zM453 335q39 0 69 3.5t64 19.5t77.5 48t108.5 89q17 14 34 14q20 0 34 -14t14 -34q0 -11 -5.5 -21t-13.5 -17q-63 -56 -112.5 -92.5t-93.5 -58.5t-86 -30.5t-90 -8.5q-51 0 -93.5 8.5t-85.5 30.5 t-92 58.5t-113 92.5q-8 7 -13.5 17t-5.5 21q0 20 14 34t34 14q10 0 18 -4t16 -10q64 -56 107.5 -88t78 -48t65.5 -20t70 -4z" />
<glyph unicode="&#x424;" horiz-adv-x="887" d="M180 398q-15 0 -26.5 -11t-11.5 -26q0 -16 11.5 -26.5t26.5 -10.5h215v74h-215v0zM491 398v-74h215q15 0 26.5 10.5t11.5 26.5q0 15 -11.5 26t-26.5 11h-215zM491 106q0 -20 -14.5 -34t-33.5 -14t-33.5 14t-14.5 34v122h-211q-28 0 -52.5 10.5t-43 28.5t-29 42t-10.5 52 t10.5 52t29 42t43 28.5t52.5 10.5h259h259q28 0 52.5 -10.5t43 -28.5t29 -42t10.5 -52t-10.5 -52t-29 -42t-43 -28.5t-52.5 -10.5h-211v-122v0z" />
<glyph unicode="&#x425;" horiz-adv-x="904" d="M806 73q-4 0 -7 0.5t-7 1.5q-44 9 -86 30t-75 50t-53 64t-20 72q0 36 20 71t53 64.5t75 50.5t86 30q4 1 7 1.5t7 0.5q20 0 34 -14t14 -34q0 -19 -13 -31t-32 -17q-31 -7 -59 -20t-49.5 -29.5t-34 -35t-12.5 -37.5t12.5 -38t34 -35.5t49.5 -29.5t59 -19q19 -4 32 -16.5 t13 -31.5q0 -20 -14 -34t-34 -14zM390 291q0 26 18 44t44 18t44 -18t18 -44t-18 -44t-44 -18t-44 18t-18 44zM98 73q-20 0 -34 14t-14 34q0 19 13 31.5t32 16.5q31 6 59 19t49.5 29.5t34 35.5t12.5 38t-12.5 37.5t-34 35t-49.5 29.5t-59 20q-19 5 -32 17t-13 31q0 20 14 34 t34 14q4 0 7 -0.5t7 -1.5q44 -9 86 -30t75 -50.5t53 -64.5t20 -71q0 -37 -20 -72t-53 -64t-75 -50t-86 -30q-4 -1 -7 -1.5t-7 -0.5z" />
<glyph unicode="&#x426;" d="M740 135q0 26 18 44t44 18t44 -18t18 -44t-18 -44t-44 -18t-44 18t-18 44zM146 291q0 -18 4.5 -39.5t17 -39.5t34 -30.5t56.5 -12.5h268q34 0 56 12.5t34.5 30.5t17 39.5t4.5 39.5v170q0 20 14 34t34 14t34 -14t14 -34v-170q0 -38 -12.5 -76.5t-36.5 -70t-58 -51.5 t-77 -20h-326q-41 0 -73 20t-54.5 51.5t-34.5 70.5t-12 76v170q0 20 14 34t34 14t34 -14t14 -34v-170z" />
<glyph unicode="&#x427;" horiz-adv-x="734" d="M146 336q0 -16 11.5 -26.5t26.5 -10.5h404v162q0 20 14 34t34 14t34 -14t14 -34v-340q0 -20 -14 -34t-34 -14q-19 0 -33.5 14t-14.5 34v82h-400q-28 0 -53 10.5t-44 28.5t-30 42t-11 52v125q0 20 14 34t34 14t34 -14t14 -34v-125z" />
<glyph unicode="&#x428;" horiz-adv-x="1012" d="M50 461q0 20 14 34t34 14t34 -14t14 -34v-170q0 -18 4.5 -39.5t17 -39.5t34 -30.5t56.5 -12.5h232q-16 28 -24 59.5t-8 62.5v170q0 20 14 34t34 14t34 -14t14 -34v-170q0 -18 4.5 -39t16 -39.5t32 -31t52.5 -12.5h95q34 0 56 12.5t34.5 30.5t17 39.5t4.5 39.5v170 q0 20 14 34t34 14t34 -14t14 -34v-170q0 -38 -12.5 -76.5t-36.5 -70t-58 -51.5t-77 -20h-554q-41 0 -73 20t-54.5 51.5t-34.5 70t-12 76.5v170z" />
<glyph unicode="&#x429;" horiz-adv-x="1151" d="M976 135q0 26 18 44t44 18t44 -18t18 -44t-18 -44t-44 -18t-44 18t-18 44zM50 461q0 20 14 34t34 14t34 -14t14 -34v-170q0 -18 4.5 -39.5t17 -39.5t34 -30.5t56.5 -12.5h232q-16 28 -24 59.5t-8 62.5v170q0 20 14 34t34 14t34 -14t14 -34v-170q0 -18 4.5 -39t16 -39.5 t32 -31t52.5 -12.5h95q34 0 56 12.5t34.5 30.5t17 39.5t4.5 39.5v170q0 20 14 34t34 14t34 -14t14 -34v-170q0 -38 -12.5 -76.5t-36.5 -70t-58 -51.5t-77 -20h-554q-41 0 -73 20t-54.5 51.5t-34.5 70t-12 76.5v170z" />
<glyph unicode="&#x42a;" horiz-adv-x="1032" d="M247 79q-20 0 -34 14t-14 34v340q0 20 14 34t34 14q19 0 33.5 -14t14.5 -34v-122h551q28 0 52.5 -10.5t43 -28.5t29 -42t10.5 -52t-10.5 -52t-29 -42t-43 -28.5t-52.5 -10.5h-599zM850 175q15 0 26.5 11t11.5 26q0 16 -11.5 26.5t-26.5 10.5h-555v-74h555zM49 453 q0 -26 18 -44t44 -18t44 18t18 44t-18 44t-44 18t-44 -18t-18 -44z" />
<glyph unicode="&#x42b;" horiz-adv-x="1028" d="M98 73q-20 0 -34 14t-14 34v340q0 20 14 34t34 14q19 0 33.5 -14t14.5 -34v-122h551q28 0 52.5 -10.5t43 -28.5t29 -42t10.5 -52t-10.5 -52t-29 -42t-43 -28.5t-52.5 -10.5h-599zM701 169q15 0 26.5 11t11.5 26q0 16 -11.5 26.5t-26.5 10.5h-555v-74h555zM978 461 q0 20 -14 34t-34 14t-34 -14t-14 -34v-340q0 -20 14 -34t34 -14t34 14t14 34v340z" />
<glyph unicode="&#x42c;" horiz-adv-x="882" d="M98 73q-20 0 -34 14t-14 34v340q0 20 14 34t34 14q19 0 33.5 -14t14.5 -34v-122h551q28 0 52.5 -10.5t43 -28.5t29 -42t10.5 -52t-10.5 -52t-29 -42t-43 -28.5t-52.5 -10.5h-599zM701 169q15 0 26.5 11t11.5 26q0 16 -11.5 26.5t-26.5 10.5h-555v-74h555z" />
<glyph unicode="&#x42d;" horiz-adv-x="905" d="M98 413q-20 0 -34 14t-14 34t14 34t34 14h573q43 0 77 -20t58 -51.5t36.5 -70.5t12.5 -76q0 -38 -12 -76.5t-34.5 -70t-55 -51.5t-72.5 -20h-583q-20 0 -34 14t-14 34t14 34t34 14h551q34 0 56 12.5t34.5 30.5t17 39.5t4.5 39.5t-4.5 39.5t-17 39.5t-34.5 30.5t-56 12.5 h-551zM638 339q20 0 34 -14t14 -34t-14 -34t-34 -14h-498q-20 0 -34 14t-14 34t14 34t34 14h498z" />
<glyph unicode="&#x42e;" horiz-adv-x="1052" d="M194 291q0 26 18 44t44 18t44 -18t18 -44t-18 -44t-44 -18t-44 18t-18 44zM146 121q0 -20 -14 -34t-34 -14t-34 14t-14 34v340q0 20 14 34t34 14t34 -14t14 -34v-340zM797 169q34 0 56 12.5t34.5 30.5t17 39.5t4.5 39.5t-4.5 39.5t-17 39.5t-34.5 30.5t-56 12.5h-224 q-35 0 -56.5 -12.5t-34 -30.5t-17 -39.5t-4.5 -39.5t4.5 -39.5t17 -39.5t34 -30.5t56.5 -12.5h224zM1002 291q0 -38 -12.5 -76.5t-36.5 -70t-58 -51.5t-77 -20h-276q-41 0 -73 20t-54.5 51.5t-34.5 70.5t-12 76t12.5 76t36.5 70.5t58 51.5t77 20h276q40 0 72.5 -20t55 -51.5 t34.5 -70.5t12 -76z" />
<glyph unicode="&#x42f;" horiz-adv-x="882" d="M50 121q0 12 10 27q36 53 81.5 89.5t103 59t128.5 32.5t159 10h204v52q-2 9 -10 15.5t-21 6.5h-524q-14 -2 -24.5 -12t-10.5 -25q0 -20 -14 -34t-34 -14t-34 14t-14 34q0 28 11 52t30 42t44 28.5t53 10.5h522q22 0 44 -9.5t39 -26.5t28 -41t11 -54v-257q0 -20 -14 -34 t-34 -14q-19 0 -33.5 14t-14.5 34v122h-204q-61 0 -114.5 -3.5t-101.5 -18.5t-91.5 -44t-84.5 -80q-2 -3 -9 -10q-7 -6 -15 -10t-18 -4q-20 0 -34 14t-14 34z" />
<glyph unicode="&#x430;" horiz-adv-x="816" d="M135 91q-14 -18 -37 -18q-20 0 -34 14t-14 34q0 19 10 29l243 327q17 23 45 37.5t60 14.5q30 0 57 -13t44 -36l243 -325q5 -8 9.5 -16t4.5 -18q0 -20 -14 -34t-34 -14q-25 0 -38 19l-233 311q-7 8 -17.5 17.5t-21.5 9.5t-21.5 -9.5t-16.5 -17.5z" />
<glyph unicode="&#x431;" horiz-adv-x="882" d="M831 206q0 -28 -10.5 -52t-29 -42t-43 -28.5t-52.5 -10.5h-598q-20 0 -34 14t-14 34v170q0 20 14 34t34 14q152 0 301.5 0.5t301.5 -0.5q32 -1 57 -16.5t42 -32.5q14 -17 22.5 -38.5t8.5 -45.5v0zM98 413q-20 0 -34 14t-14 34t14 34t34 14h599q20 0 34 -14t14 -34 t-14 -34t-34 -14h-599v0zM146 243v-74h554q15 0 26.5 11t11.5 26q0 16 -11.5 26.5t-26.5 10.5h-554v0z" />
<glyph unicode="&#x432;" horiz-adv-x="882" d="M701 169q15 0 26.5 11t11.5 26q0 16 -11.5 26.5t-26.5 10.5h-555v-49q0 -10 8.5 -17.5t22.5 -7.5h524zM50 461q0 20 14 34t34 14h599q28 0 52.5 -10.5t43 -28.5t29 -42.5t10.5 -52.5q0 -25 -8.5 -46.5t-22.5 -38.5q14 -17 22.5 -38.5t8.5 -45.5q0 -28 -10.5 -52t-29 -42 t-43 -28.5t-52.5 -10.5h-525q-22 0 -44 9.5t-39 26.5t-28 41t-11 54v90q0 27 15.5 36t48.5 9h588q15 0 26 10t11 26q0 15 -11.5 26.5t-26.5 11.5h-603q-20 0 -34 14t-14 34z" />
<glyph unicode="&#x433;" horiz-adv-x="905" d="M51 291q0 37 12.5 76t36.5 70.5t58 51.5t77 20h573q20 0 34 -14t14 -34t-14 -34t-34 -14h-552q-33 0 -54.5 -11t-33.5 -28.5t-16.5 -37.5t-4.5 -38v-177q0 -20 -14 -34t-34 -14t-34 14t-14 34v170z" />
<glyph unicode="&#x434;" horiz-adv-x="816" d="M718 169q20 0 34 -14t14 -34t-14 -34t-34 -14h-624q-18 2 -31 15.5t-13 32.5q0 20 14 34t34 14h620zM255 211q-6 -10 -16 -14t-21 -4q-20 0 -34 14t-14 34q0 19 10 29l123 207q15 25 44 38.5t61 13.5q30 0 58 -12t43 -37l123 -205q5 -8 9.5 -16t4.5 -18q0 -20 -14 -34 t-34 -14q-12 0 -22 4t-16 15l-113 191q-5 9 -16.5 18t-22.5 9t-22 -9t-16 -18z" />
<glyph unicode="&#x435;" horiz-adv-x="905" d="M50 461q0 20 14 34t34 14h709q20 0 34 -14t14 -34t-14 -34t-34 -14h-709q-20 0 -34 14t-14 34zM172 73q-22 0 -44 9.5t-39 26.5t-28 41t-11 54v90q0 27 15.5 36t48.5 9h671q20 0 34 -14t14 -34t-14 -34t-34 -14h-639v-49q0 -10 8.5 -17.5t22.5 -7.5h630q20 0 34 -14 t14 -34t-14 -34t-34 -14h-635z" />
<glyph unicode="&#x436;" horiz-adv-x="1029" d="M467 339h-41q-52 0 -90 13.5t-70 35.5t-63.5 50t-70.5 57q-9 6 -17.5 10t-16.5 4q-20 0 -34 -14t-14 -34q0 -14 8 -24.5t19 -18.5q26 -20 50 -37t48 -32.5t49.5 -29.5t54.5 -28q-29 -14 -54.5 -28t-49.5 -29.5t-48 -32.5t-50 -37q-11 -8 -19 -18.5t-8 -24.5q0 -20 14 -34 t34 -14q8 0 16.5 4t17.5 10q40 30 71.5 58.5t63.5 50t69 34.5t90 13h41v96zM467 339v122q0 20 14 34t33 14q20 0 34 -14t14 -34v-122h41q52 0 89.5 13.5t70 35.5t63.5 50t71 57q8 6 17 10t17 4q20 0 34 -14t14 -34q0 -14 -8 -24.5t-19 -18.5q-27 -20 -50.5 -37t-47.5 -32.5 t-49.5 -29.5t-54.5 -28q29 -14 54.5 -28t49.5 -29.5t47.5 -32.5t50.5 -37q11 -8 19 -18.5t8 -24.5q0 -20 -14 -34t-34 -14q-8 0 -17 4t-17 10q-41 30 -72.5 58.5t-63 50t-69 34.5t-89.5 13h-41v-122q0 -20 -14 -34t-33 -14q-20 0 -34 14t-14 34v122v96z" />
<glyph unicode="&#x437;" horiz-adv-x="887" d="M98 509h605q28 0 52.5 -10t42.5 -28t28.5 -42t10.5 -52q0 -25 -8.5 -47t-23.5 -39q32 -38 32 -86q0 -28 -10.5 -52t-28.5 -42t-42.5 -28t-52.5 -10h-605q-20 0 -34 14t-14 34t14 34t34 14h610q15 0 26 10.5t11 25.5q0 16 -10.5 27t-25.5 11q-20 0 -34 14t-14 34t14 33.5 t34 14.5q15 0 25.5 11t10.5 27q0 15 -11 25.5t-26 10.5h-610q-20 0 -34 14t-14 34t14 34t34 14v0zM564 339q20 0 34 -14t14 -34t-14 -34t-34 -14h-352q-20 0 -34 14t-14 34t14 34t34 14h352v0z" />
<glyph unicode="&#x438;" horiz-adv-x="877" d="M146 264q0 -36 4 -55t19 -19q8 0 20.5 6.5t31.5 17.5l458 280q11 7 24.5 11t27.5 4q42 0 69 -27.5t27 -69.5v-291q0 -20 -14 -34t-34 -14t-34 14t-14 34v197q0 36 -4 55t-19 19q-8 0 -20.5 -6.5t-31.5 -17.5l-458 -280q-11 -7 -24.5 -11t-27.5 -4q-42 0 -69 27.5 t-27 69.5v291q0 20 14 34t34 14t34 -14t14 -34v-197z" />
<glyph unicode="&#x439;" horiz-adv-x="877" d="M598 679q0 -20 -15 -35l-95 -96l-3 -2q-12 -14 -34 -14t-34 14l-3 2l-95 96q-15 15 -15 35t14.5 34.5t34.5 14.5q10 0 17.5 -4t15.5 -11l65 -64l65 64q8 7 15.5 11t17.5 4q20 0 34.5 -14.5t14.5 -34.5zM146 461q0 20 -14 34t-34 14t-34 -14t-14 -34v-291q0 -42 27 -69.5 t69 -27.5q14 0 27.5 4t24.5 11l458 280q19 11 31.5 17.5t20.5 6.5q15 0 19 -19t4 -55v-197q0 -20 14 -34t34 -14t34 14t14 34v291q0 42 -27 69.5t-69 27.5q-14 0 -27.5 -4t-24.5 -11l-458 -280q-19 -11 -31.5 -17.5t-20.5 -6.5q-15 0 -19 19t-4 55v197z" />
<glyph unicode="&#x43a;" horiz-adv-x="882" d="M145 339h231q52 0 102 13.5t97.5 35.5t91 50t83.5 57q8 6 17 10t17 4q20 0 34 -14t14 -34q0 -14 -8 -24.5t-19 -18.5q-26 -20 -50 -37t-48 -32.5t-49.5 -29.5t-54.5 -28q29 -14 54.5 -28t49.5 -29.5t48 -32.5t50 -37q11 -8 19 -18.5t8 -24.5q0 -20 -14 -34t-34 -14 q-8 0 -17 4t-17 10q-41 30 -85 58.5t-90.5 50t-96.5 34.5t-102 13h-231v-122q0 -20 -14 -34t-33 -14q-20 0 -34 14t-14 34v340q0 20 14 34t33 14q20 0 34 -14t14 -34v-122z" />
<glyph unicode="&#x43b;" horiz-adv-x="816" d="M446 383q-6 8 -16.5 17.5t-21.5 9.5t-21.5 -9.5t-17.5 -17.5l-233 -311q-13 -19 -38 -19q-20 0 -34 14t-14 34q0 10 4.5 18t9.5 16l243 325q17 23 44 36t57 13q32 0 60 -14.5t45 -37.5l242 -326l1 -1q10 -10 10 -29q0 -20 -14 -34t-34 -14q-24 0 -37 18z" />
<glyph unicode="&#x43c;" horiz-adv-x="944" d="M894 121q0 -20 -14 -34t-34 -14t-34 14t-14 34v218q0 41 -5 41q-4 0 -28 -27l-220 -250q-13 -15 -32 -22.5t-41 -7.5t-41 7.5t-32 22.5l-220 250q-23 27 -28 27t-5 -41v-218q0 -20 -14 -34t-34 -14t-34 14t-14 34v292q0 40 23 68t63 28q24 0 43 -12t35 -29l230 -262 q5 -5 12.5 -10.5t15.5 -5.5t15.5 5.5t12.5 10.5l229 262h1q14 19 34 30t44 11q40 0 63 -28t23 -68v-292z" />
<glyph unicode="&#x43d;" horiz-adv-x="883" d="M833 121q0 -20 -14 -34t-34 -14t-34 14t-14 34v122h-591v-122q0 -20 -14 -34t-34 -14t-34 14t-14 34v340q0 20 14 34t34 14t34 -14t14 -34v-122h591v122q0 20 14 34t34 14t34 -14t14 -34v-340z" />
<glyph unicode="&#x43e;" d="M659 169q34 0 56 12.5t34.5 30.5t17 39.5t4.5 39.5t-4.5 39.5t-17 39.5t-34.5 30.5t-56 12.5h-404q-35 0 -56.5 -12.5t-34 -30.5t-17 -39.5t-4.5 -39.5t4.5 -39.5t17 -39.5t34 -30.5t56.5 -12.5h404zM864 291q0 -38 -12.5 -76.5t-36.5 -70t-58 -51.5t-77 -20h-456 q-41 0 -73 20t-54.5 51.5t-34.5 70.5t-12 76t12.5 76t36.5 70.5t58 51.5t77 20h456q40 0 72.5 -20t55 -51.5t34.5 -70.5t12 -76z" />
<glyph unicode="&#x43f;" horiz-adv-x="877" d="M731 291q0 18 -4.5 39.5t-17 39.5t-34.5 30.5t-56 12.5h-361q-35 0 -56.5 -12.5t-34 -30.5t-17 -39.5t-4.5 -39.5v-170q0 -20 -14 -34t-34 -14t-34 14t-14 34v170q0 37 12.5 76t36.5 70.5t58 51.5t77 20h419q40 0 72.5 -20t55 -51.5t34.5 -70.5t12 -76v-170 q0 -20 -14 -34t-34 -14t-34 14t-14 34v170z" />
<glyph unicode="&#x440;" horiz-adv-x="882" d="M50 461q0 20 14 34t34 14h599q28 0 52.5 -10.5t43 -28.5t29 -42t10.5 -52t-10.5 -52t-29 -42t-43 -28.5t-52.5 -10.5h-520q-13 -2 -22 -12t-9 -25v-85q0 -20 -14.5 -34t-33.5 -14q-20 0 -34 14t-14 34v96q0 25 9 47.5t25.5 39t38 26t47.5 9.5h531q15 0 26.5 10.5 t11.5 26.5q0 15 -11.5 26t-26.5 11h-603q-20 0 -34 14t-14 34z" />
<glyph unicode="&#x441;" horiz-adv-x="915" d="M50 291q0 37 12.5 76t36.5 70.5t58 51.5t77 20h583q20 0 34 -14t14 -34t-14 -34t-34 -14h-562q-35 0 -56.5 -12.5t-34 -30.5t-17 -39.5t-4.5 -39.5t4.5 -39.5t17 -39.5t34 -30.5t56.5 -12.5h562q20 0 34 -14t14 -34t-14 -34t-34 -14h-593q-41 0 -73 20t-54.5 51.5 t-34.5 70t-12 76.5z" />
<glyph unicode="&#x442;" horiz-adv-x="884" d="M786 509q20 0 34 -14t14 -34t-14 -34t-34 -14h-296v-292q0 -20 -14 -34t-34 -14t-34 14t-14 34v292h-300q-18 2 -31 15.5t-13 32.5q0 20 14 34t34 14h688z" />
<glyph unicode="&#x443;" horiz-adv-x="904" d="M500 121q0 -20 -14 -34t-34 -14t-34 14t-14 34v122q-38 0 -74 10t-75.5 31.5t-85 55.5t-100.5 83q-8 7 -13.5 17t-5.5 21q0 20 14 34t34 14q10 0 18 -4t16 -10q64 -56 107.5 -87.5t78 -46.5t65.5 -18.5t70 -3.5t69 3t64 18t77.5 46.5t108.5 88.5q17 14 34 14q20 0 34 -14 t14 -34q0 -11 -5.5 -21t-13.5 -17q-55 -48 -101 -82t-86.5 -56t-76.5 -32t-71 -10v-122z" />
<glyph unicode="&#x444;" horiz-adv-x="887" d="M706 324q15 0 26.5 10.5t11.5 26.5q0 15 -11.5 26t-26.5 11h-215h-311q-15 0 -26.5 -11t-11.5 -26q0 -16 11.5 -26.5t26.5 -10.5h215h311v0zM491 106q0 -20 -14.5 -34t-33.5 -14t-33.5 14t-14.5 34v122h-211q-28 0 -52.5 10.5t-43 28.5t-29 42t-10.5 52t10.5 52t29 42 t43 28.5t52.5 10.5h259h259q28 0 52.5 -10.5t43 -28.5t29 -42t10.5 -52t-10.5 -52t-29 -42t-43 -28.5t-52.5 -10.5h-211v-122v0z" />
<glyph unicode="&#x445;" horiz-adv-x="904" d="M835 423q-51 -45 -94 -77.5t-81 -54.5q38 -22 79.5 -54.5t95.5 -77.5q8 -7 13.5 -17t5.5 -21q0 -20 -14 -34t-34 -14q-17 0 -34 14q-64 56 -107.5 87.5t-78 46.5t-65.5 18.5t-70 3.5h-22q-33 0 -61 -5t-60 -21t-73.5 -47t-102.5 -83q-16 -14 -34 -14q-20 0 -34 14t-14 34 q0 11 5.5 21t13.5 17q100 89 175 131q-38 22 -80.5 54.5t-94.5 78.5q-8 7 -13.5 17t-5.5 21q0 20 14 34t34 14q10 0 18 -4t16 -10q61 -54 103 -85t75.5 -46.5t63 -20t64.5 -4.5h15q39 0 69 3t64 18t77.5 46.5t108.5 88.5q17 14 34 14q20 0 34 -14t14 -34q0 -11 -5.5 -21 t-13.5 -17z" />
<glyph unicode="&#x446;" d="M740 135q0 26 18 44t44 18t44 -18t18 -44t-18 -44t-44 -18t-44 18t-18 44zM146 291q0 -18 4.5 -39.5t17 -39.5t34 -30.5t56.5 -12.5h268q34 0 56 12.5t34.5 30.5t17 39.5t4.5 39.5v170q0 20 14 34t34 14t34 -14t14 -34v-170q0 -38 -12.5 -76.5t-36.5 -70t-58 -51.5 t-77 -20h-326q-41 0 -73 20t-54.5 51.5t-34.5 70.5t-12 76v170q0 20 14 34t34 14t34 -14t14 -34v-170z" />
<glyph unicode="&#x447;" horiz-adv-x="734" d="M146 336q0 -16 11.5 -26.5t26.5 -10.5h404v162q0 20 14 34t34 14t34 -14t14 -34v-340q0 -20 -14 -34t-34 -14q-19 0 -33.5 14t-14.5 34v82h-400q-28 0 -53 10.5t-44 28.5t-30 42t-11 52v125q0 20 14 34t34 14t34 -14t14 -34v-125z" />
<glyph unicode="&#x448;" horiz-adv-x="1012" d="M50 461q0 20 14 34t34 14t34 -14t14 -34v-170q0 -18 4.5 -39.5t17 -39.5t34 -30.5t56.5 -12.5h232q-16 28 -24 59.5t-8 62.5v170q0 20 14 34t34 14t34 -14t14 -34v-170q0 -18 4.5 -39t16 -39.5t32 -31t52.5 -12.5h95q34 0 56 12.5t34.5 30.5t17 39.5t4.5 39.5v170 q0 20 14 34t34 14t34 -14t14 -34v-170q0 -38 -12.5 -76.5t-36.5 -70t-58 -51.5t-77 -20h-554q-41 0 -73 20t-54.5 51.5t-34.5 70t-12 76.5v170z" />
<glyph unicode="&#x449;" horiz-adv-x="1151" d="M976 135q0 26 18 44t44 18t44 -18t18 -44t-18 -44t-44 -18t-44 18t-18 44zM50 461q0 20 14 34t34 14t34 -14t14 -34v-170q0 -18 4.5 -39.5t17 -39.5t34 -30.5t56.5 -12.5h232q-16 28 -24 59.5t-8 62.5v170q0 20 14 34t34 14t34 -14t14 -34v-170q0 -18 4.5 -39t16 -39.5 t32 -31t52.5 -12.5h95q34 0 56 12.5t34.5 30.5t17 39.5t4.5 39.5v170q0 20 14 34t34 14t34 -14t14 -34v-170q0 -38 -12.5 -76.5t-36.5 -70t-58 -51.5t-77 -20h-554q-41 0 -73 20t-54.5 51.5t-34.5 70t-12 76.5v170z" />
<glyph unicode="&#x44a;" horiz-adv-x="1031" d="M199 121q0 20 14 34t34 14h603q15 0 26.5 11t11.5 26q0 16 -11.5 26.5t-26.5 10.5h-531q-26 0 -47.5 9.5t-38 26t-25.5 38.5t-9 48v96q0 20 14 34t34 14q19 0 33.5 -14t14.5 -34v-85q0 -15 9 -25t22 -12h520q28 0 52.5 -10.5t43 -28.5t29 -42t10.5 -52t-10.5 -52t-29 -42 t-43 -28.5t-52.5 -10.5h-599q-20 0 -34 14t-14 34zM50 447q0 -26 18 -44t44 -18t44 18t18 44t-18 44t-44 18t-44 -18t-18 -44z" />
<glyph unicode="&#x44b;" horiz-adv-x="1028" d="M50 121q0 -20 14 -34t34 -14h599q28 0 52.5 10.5t43 28.5t29 42t10.5 52t-10.5 52t-29 42t-43 28.5t-52.5 10.5h-520q-13 2 -22 12t-9 25v85q0 20 -14.5 34t-33.5 14q-20 0 -34 -14t-14 -34v-96q0 -26 9 -48t25.5 -38.5t38 -26t47.5 -9.5h531q15 0 26.5 -10.5t11.5 -26.5 q0 -15 -11.5 -26t-26.5 -11h-603q-20 0 -34 -14t-14 -34zM978 121q0 -20 -14 -34t-34 -14t-34 14t-14 34v340q0 20 14 34t34 14t34 -14t14 -34v-340z" />
<glyph unicode="&#x44c;" horiz-adv-x="882" d="M50 121q0 20 14 34t34 14h603q15 0 26.5 11t11.5 26q0 16 -11.5 26.5t-26.5 10.5h-531q-26 0 -47.5 9.5t-38 26t-25.5 38.5t-9 48v96q0 20 14 34t34 14q19 0 33.5 -14t14.5 -34v-85q0 -15 9 -25t22 -12h520q28 0 52.5 -10.5t43 -28.5t29 -42t10.5 -52t-10.5 -52t-29 -42 t-43 -28.5t-52.5 -10.5h-599q-20 0 -34 14t-14 34z" />
<glyph unicode="&#x44d;" horiz-adv-x="905" d="M98 73q-20 0 -34 14t-14 34t14 34t34 14h630q14 0 22.5 7.5t8.5 17.5v49h-639q-20 0 -34 14t-14 34t14 34t34 14h671q33 0 48.5 -9t15.5 -36v-90q0 -30 -11 -54t-28 -41t-39 -26.5t-44 -9.5h-635zM855 461q0 -20 -14 -34t-34 -14h-709q-20 0 -34 14t-14 34t14 34t34 14 h709q20 0 34 -14t14 -34z" />
<glyph unicode="&#x44e;" horiz-adv-x="1052" d="M373 339q7 32 22 62.5t38 54.5t53 38.5t66 14.5h276q40 0 72.5 -20t55 -51.5t34.5 -70.5t12 -76q0 -38 -12.5 -76.5t-36.5 -70t-58 -51.5t-77 -20h-276q-34 0 -62 14.5t-49 38.5t-35.5 55t-20.5 63l-229 -1v-122q0 -20 -14 -34t-34 -14t-34 14t-14 34v340q0 20 14 34 t34 14t34 -14t14 -34v-122h227v0zM573 169h224q34 0 56 12.5t34.5 30.5t17 39.5t4.5 39.5t-4.5 39.5t-17 39.5t-34.5 30.5t-56 12.5h-224q-35 0 -56.5 -12.5t-34 -30.5t-17 -39.5t-4.5 -39.5t4.5 -39.5t17 -39.5t34 -30.5t56.5 -12.5z" />
<glyph unicode="&#x44f;" horiz-adv-x="882" d="M185 243q-28 0 -52.5 10.5t-43 28.5t-29 42t-10.5 52t10.5 52t29 42t43 28.5t52.5 10.5h599q20 0 34 -14t14 -34t-14 -34t-34 -14h-603q-15 0 -26.5 -11t-11.5 -26q0 -16 11.5 -26.5t26.5 -10.5h530q25 0 47.5 -9.5t38.5 -26t25.5 -39t9.5 -47.5v-96q0 -20 -14 -34 t-34 -14q-19 0 -33.5 14t-14.5 34v85q0 15 -9 25t-22 12h-199q-54 0 -104 -13t-96.5 -34.5t-89.5 -50t-84 -58.5q-8 -6 -17 -10t-17 -4q-20 0 -34 14t-14 34q0 14 8 24.5t19 18.5q29 23 57 42.5t55 36.5h-4z" />
<glyph unicode="&#x451;" horiz-adv-x="905" d="M50 461q0 20 14 34t34 14h709q20 0 34 -14t14 -34t-14 -34t-34 -14h-709q-20 0 -34 14t-14 34zM172 73q-22 0 -44 9.5t-39 26.5t-28 41t-11 54v90q0 27 15.5 36t48.5 9h671q20 0 34 -14t14 -34t-14 -34t-34 -14h-639v-49q0 -10 8.5 -17.5t22.5 -7.5h630q20 0 34 -14 t14 -34t-14 -34t-34 -14h-635zM488 611q0 26 18 44t44 18t44 -18t18 -44t-18 -44t-44 -18t-44 18t-18 44zM243 611q0 26 18 44t44 18t44 -18t18 -44t-18 -44t-44 -18t-44 18t-18 44z" />
<glyph unicode="&#x45e;" horiz-adv-x="904" d="M598 679q0 -20 -15 -35l-95 -96l-3 -2q-12 -14 -34 -14t-34 14l-3 2l-95 96q-15 15 -15 35t14.5 34.5t34.5 14.5q10 0 17.5 -4t15.5 -11l65 -64l65 64q8 7 15.5 11t17.5 4q20 0 34.5 -14.5t14.5 -34.5zM500 121q0 -20 -14 -34t-34 -14t-34 14t-14 34v122q-38 0 -74 10 t-75.5 31.5t-85 55.5t-100.5 83q-8 7 -13.5 17t-5.5 21q0 20 14 34t34 14q10 0 18 -4t16 -10q64 -56 107.5 -87.5t78 -46.5t65.5 -18.5t70 -3.5t69 3t64 18t77.5 46.5t108.5 88.5q17 14 34 14q20 0 34 -14t14 -34q0 -11 -5.5 -21t-13.5 -17q-55 -48 -101 -82t-86.5 -56 t-76.5 -32t-71 -10v-122z" />
<glyph unicode="&#x2013;" horiz-adv-x="883" d="M785 339q20 0 34 -14t14 -34t-14 -34t-34 -14h-691q-18 0 -31 14.5t-13 33.5q0 20 14 34t34 14h687z" />
<glyph unicode="&#x2014;" horiz-adv-x="1083" d="M985 339q20 0 34 -14t14 -34t-14 -34t-34 -14h-891q-18 0 -31 14.5t-13 33.5q0 20 14 34t34 14h887z" />
<glyph unicode="&#x2018;" horiz-adv-x="196" d="M38 395q0 23 8.5 47.5t33.5 47.5q8 8 17 13t20 5q20 0 34 -14t14 -34q0 -23 -16 -36q-2 -2 -4.5 -5.5t-5 -12.5t-4 -25t-1.5 -42q0 -20 -14 -34t-34 -14t-34 14t-14 34v56z" />
<glyph unicode="&#x2019;" horiz-adv-x="196" d="M146 405q0 -23 -8.5 -47.5t-33.5 -47.5q-8 -8 -17 -13t-20 -5q-20 0 -34 14t-14 34q0 23 16 36q1 1 4 5t5 13t4 25t2 42q0 20 14 34t34 14t34 -14t14 -34v-56z" />
<glyph unicode="&#x201a;" horiz-adv-x="196" d="M146 65q0 -23 -8.5 -47t-33.5 -47q-8 -8 -17 -13t-20 -5q-20 0 -34 13.5t-14 33.5q0 23 16 36q1 1 4 5t5 13t4 25t2 42q0 20 14 34t34 14t34 -14t14 -34v-56z" />
<glyph unicode="&#x201c;" horiz-adv-x="353" d="M195 396q0 23 8.5 47.5t33.5 47.5q8 8 17 13t20 5q20 0 34 -14t14 -34q0 -23 -16 -36q-2 -2 -4.5 -5.5t-5 -12.5t-4 -25t-1.5 -42q0 -20 -14 -34t-34 -14t-34 14t-14 34v56zM38 396q0 23 8.5 47.5t33.5 47.5q8 8 17 13t20 5q20 0 34 -14t14 -34q0 -23 -16 -36 q-2 -2 -4.5 -5.5t-5 -12.5t-4 -25t-1.5 -42q0 -20 -14 -34t-34 -14t-34 14t-14 34v56z" />
<glyph unicode="&#x201d;" horiz-adv-x="353" d="M165 405q0 -23 -8.5 -47.5t-33.5 -47.5q-8 -8 -17 -13t-20 -5q-20 0 -34 14t-14 34q0 23 16 36q1 1 4 5t5 13t4 25t2 42q0 20 14 34t34 14t34 -14t14 -34v-56zM322 405q0 -23 -8.5 -47.5t-33.5 -47.5q-8 -8 -17 -13t-20 -5q-20 0 -34 14t-14 34q0 23 16 36q1 1 4 5t5 13 t4 25t2 42q0 20 14 34t34 14t34 -14t14 -34v-56z" />
<glyph unicode="&#x201e;" horiz-adv-x="353" d="M165 65q0 -23 -8.5 -47t-33.5 -47q-8 -8 -17 -13t-20 -5q-20 0 -34 13.5t-14 33.5q0 23 16 36q1 1 4 5t5 13t4 25t2 42q0 20 14 34t34 14t34 -14t14 -34v-56zM322 65q0 -23 -8.5 -47t-33.5 -47q-8 -8 -17 -13t-20 -5q-20 0 -34 13.5t-14 33.5q0 23 16 36q1 1 4 5t5 13 t4 25t2 42q0 20 14 34t34 14t34 -14t14 -34v-56z" />
<glyph unicode="&#x2022;" horiz-adv-x="292" d="M50 291q0 19 7.5 36.5t21 31t30.5 21t37 7.5q19 0 36.5 -7.5t31 -21t21 -31t7.5 -36.5q0 -20 -7.5 -37t-21 -30.5t-31 -21t-36.5 -7.5q-20 0 -37 7.5t-30.5 21t-21 30.5t-7.5 37z" />
<glyph unicode="&#x2026;" horiz-adv-x="772" d="M598 121q0 26 18 44t44 18t44 -18t18 -44t-18 -44t-44 -18t-44 18t-18 44zM324 121q0 26 18 44t44 18t44 -18t18 -44t-18 -44t-44 -18t-44 18t-18 44zM50 121q0 26 18 44t44 18t44 -18t18 -44t-18 -44t-44 -18t-44 18t-18 44z" />
<glyph unicode="&#x2039;" horiz-adv-x="264" d="M243 121q0 -20 -14 -34t-34 -14q-22 0 -37 18l-133 170q-11 14 -11 30t11 30l133 170q15 18 37 18q20 0 34 -14t14 -34q0 -16 -11 -30l-110 -140l110 -140q11 -14 11 -30z" />
<glyph unicode="&#x203a;" horiz-adv-x="264" d="M15 121q0 16 11 30l110 140l-110 140q-11 14 -11 30q0 20 14 34t34 14q22 0 37 -18l133 -170q11 -14 11 -30t-11 -30l-133 -170q-15 -18 -37 -18q-20 0 -34 14t-14 34z" />
<glyph unicode="&#x20ac;" horiz-adv-x="905" d="M807 509q20 0 34 -14t14 -34t-14 -34t-34 -14h-630q-14 0 -22.5 -7.5t-8.5 -17.5v-19h518q12 0 20.5 -8.5t8.5 -20.5t-8.5 -20.5t-20.5 -8.5h-550q-33 0 -48.5 9t-15.5 36v22q0 30 11 54t28 41t39 26.5t44 9.5h635zM172 73q-22 0 -44 9.5t-39 26.5t-28 41t-11 54v22 q0 27 15.5 36t48.5 9h500q12 0 20.5 -8.5t8.5 -20.5t-8.5 -20.5t-20.5 -8.5h-468v-19q0 -10 8.5 -17.5t22.5 -7.5h630q20 0 34 -14t14 -34t-14 -34t-34 -14h-635z" />
<glyph unicode="&#x2116;" horiz-adv-x="1171" d="M1091 351q13 0 21.5 -8.5t8.5 -20.5q0 -13 -8.5 -21.5t-21.5 -8.5h-187q-11 2 -19 10t-8 20t8.5 20.5t21.5 8.5h184zM1050 417q20 0 26.5 8t6.5 19t-6.5 18.5t-26.5 7.5h-102q-20 0 -26.5 -7.5t-6.5 -18.5t6.5 -19t26.5 -8h102zM1121 444q0 -11 -4 -23t-11 -21.5 t-17 -15.5t-23 -6h-137q-12 0 -21.5 6t-16.5 15.5t-10.5 21.5t-3.5 23t3.5 22.5t10.5 21t17.5 15.5t23.5 6h137q12 0 21.5 -6t16.5 -15.5t10.5 -21t3.5 -22.5zM731 461q0 20 14 34t34 14t34 -14t14 -34v-291q0 -42 -27 -69.5t-69 -27.5q-14 0 -27.5 4t-24.5 11l-458 280 q-19 11 -31.5 17.5t-20.5 6.5q-15 0 -19 -19t-4 -55v-197q0 -20 -14 -34t-34 -14t-34 14t-14 34v291q0 42 27 69.5t69 27.5q14 0 27.5 -4t24.5 -11l458 -280q19 -11 31.5 -17.5t20.5 -6.5q15 0 19 19t4 55v197z" />
<glyph unicode="&#x2122;" horiz-adv-x="746" d="M324 509q10 0 17.5 -7.5t7.5 -18.5q0 -10 -7.5 -17t-17.5 -7h-106v-105q0 -11 -7.5 -18.5t-18.5 -7.5t-18 7.5t-7 18.5v105h-108q-10 0 -17 7.5t-7 16.5q0 11 7.5 18.5t18.5 7.5h263zM690 354q0 -11 -7.5 -18.5t-17.5 -7.5q-11 0 -18.5 7.5t-7.5 18.5v84l-84 -96 q-6 -7 -15 -10.5t-18 -3.5q-21 0 -34 15l-84 95v-84q0 -11 -7.5 -18.5t-18.5 -7.5q-10 0 -17.5 7.5t-7.5 18.5v112q0 17 11 30t29 13q21 0 34 -18l90 -102q2 -2 5 -2q2 0 4 2l89 101q8 9 16 14t19 5q19 0 29.5 -13t10.5 -30v-112z" />
<glyph unicode="&#xe000;" horiz-adv-x="510" d="M0 510h510v-510h-510v510z" />
</font>
</defs>
</svg>
